» » » Love Don't Cost a Thing (2003)
uploaded.to



Information of news
  • Author: xiucoi
  • Date: 4-08-2014, 01:58
4-08-2014, 01:58

Love Don't Cost a Thing (2003)

Category: Movies / Movies (Xvid)

Love Don't Cost a Thing (2003)

Love Don't Cost a Thing (2003)
WEB-DL | MKV | AVC, 5006 Kbps | 1904x1076 | 23.976 fps | 3.88 GB | Runtime: 101 Min
Audio : English Ac3 384 Kbps | 6 channels | 48 KHz | Subtitle : None
Genre: Comedy | Romance | Drama


Highschool loser (Cannon) pays a cheerleader (Milian) to pose as his girlfriend so he can be considered cool. Remake of 1987' Can't Buy Me Love, starring Patrick Dempsey.
IMDB Video
ID : 1
Format : AVC
Format/Info : Advanced Video Codec
Format profile :
Format settings, CABAC : Yes
Format settings, ReFrames : 4 frames
Codec ID : V_MPEG4/ISO/AVC
Duration : 1h 41mn
Bit rate : 5 006 Kbps
Width : 1 904 pixels
Height : 1 076 pixels
Display aspect ratio : 16:9
Frame rate mode : Constant
Frame rate : 23.976 fps
Color space : YUV
Chroma subsampling : 4:2:0
Bit depth : 8 bits
Scan type : Progressive
Bits/(Pixel*Frame) : 0.102
Stream size : 3.54 GiB (91%)
Language : English
Default : Yes
Forced : No
Color primaries : BT.709
Transfer characteristics : BT.709
Matrix coefficients : BT.709

Audio
ID : 2
Format : AC-3
Format/Info : Audio Coding 3
Mode extension : CM (complete main)
Format settings, Endianness : Big
Codec ID : A_AC3
Duration : 1h 41mn
Bit rate mode : Constant
Bit rate : 384 Kbps
Channel(s) : 6 channels
Channel positions : Front: L C R, Side: L R, LFE
Sampling rate : 48.0 KHz
Bit depth : 16 bits
Compression mode : Lossy
Stream size : 278 MiB (7%)
Language : English
Default : Yes
Forced : No
Love Don't Cost a Thing (2003)


SEND YOUR REWQUEST TO: [email protected]

I SPEND LOTS OF TIME FOR THIS, PLEASE ENJOY!

DOWNLOAD:



uploadable_ch:
http://www.uploadable.ch/file/TUTtmvfAg2yb/LoFxOF.hdshq.Love.Dont.Cost.a.Thing.2003.part1.rar
http://www.uploadable.ch/file/q9fRYHYSEYZT/LoFxOF.hdshq.Love.Dont.Cost.a.Thing.2003.part2.rar
http://www.uploadable.ch/file/fhp7w8UEJXRm/LoFxOF.hdshq.Love.Dont.Cost.a.Thing.2003.part3.rar
http://www.uploadable.ch/file/2MWa3ksRdvnJ/LoFxOF.hdshq.Love.Dont.Cost.a.Thing.2003.part4.rar
http://www.uploadable.ch/file/DpSqUpC5w3kT/LoFxOF.hdshq.Love.Dont.Cost.a.Thing.2003.part5.rar
http://www.uploadable.ch/file/ZaXcVN4bq49B/LoFxOF.hdshq.Love.Dont.Cost.a.Thing.2003.part6.rar
http://www.uploadable.ch/file/unb6g3PgqZth/LoFxOF.hdshq.Love.Dont.Cost.a.Thing.2003.part7.rar

-----------------------------------------------

rapidgator_net:
http://rapidgator.net/file/da686c172d81f5f3a0637cd0e3766d95/LoFxOF.hdshq.Love.Dont.Cost.a.Thing.2003.part1.rar.html
http://rapidgator.net/file/4e5051291c6d664255df6eaf55926c00/LoFxOF.hdshq.Love.Dont.Cost.a.Thing.2003.part2.rar.html
http://rapidgator.net/file/e066721122eebaa93fa7290d6697257e/LoFxOF.hdshq.Love.Dont.Cost.a.Thing.2003.part3.rar.html
http://rapidgator.net/file/ef6bf1a139c38ed59fe601303e51e454/LoFxOF.hdshq.Love.Dont.Cost.a.Thing.2003.part4.rar.html
http://rapidgator.net/file/04d62a6a995f6bc0de67315571bde58f/LoFxOF.hdshq.Love.Dont.Cost.a.Thing.2003.part5.rar.html
http://rapidgator.net/file/8617309dd94d188caf8d3c1d98e486b4/LoFxOF.hdshq.Love.Dont.Cost.a.Thing.2003.part6.rar.html
http://rapidgator.net/file/4e8c1c3da9285ed600580b81063f67c3/LoFxOF.hdshq.Love.Dont.Cost.a.Thing.2003.part7.rar.html

uploaded


Rapidgator.net

Site BBcode/HTML Code:
Dear visitor, you went to the site as unregistered user.
We recommend you Sign up or Login to website under your name.
Information
Would you like to leave your comment? Please Login to your account to leave comments. Don't have an account? You can create a free account now.

Tag Cloud

archive of news

^
 
free html hit counter