» » » The Salvation 2014 1080p BluRay H264 AAC-RARBG
uploaded.to



Information of news
24-11-2014, 09:57

The Salvation 2014 1080p BluRay H264 AAC-RARBG

Category: Movies / Movies (Xvid)

The Salvation 2014 1080p BluRay H264 AAC-RARBG
The.Salvation.2014.1080p.BluRay.H264.AAC-RARBG
Category:Movies/x264/1080
Size: 1.75 GB




The Salvation 2014 1080p BluRay H264 AAC-RARBG


Video
ID : 1
Format : AVC
Format/Info : Advanced Video Codec
Format profile : [email protected]
Format settings, CABAC : Yes
Format settings, ReFrames : 4 frames
Codec ID : avc1
Codec ID/Info : Advanced Video Coding
Duration : 1h 32mn
Bit rate : 2 500 Kbps
Width : 1 920 pixels
Height : 808 pixels
Display aspect ratio : 2.40:1
Frame rate mode : Constant
Frame rate : 24.000 fps
Color space : YUV
Chroma subsampling : 4:2:0
Bit depth : 8 bits
Scan type : Progressive
Bits/(Pixel*Frame) : 0.067
Stream size : 1.61 GiB (92%)

Audio
ID : 2
Format : AAC
Format/Info : Advanced Audio Codec
Format profile : LC
Codec ID : 40
Duration : 1h 31mn
Bit rate mode : Constant
Bit rate : 224 Kbps
Channel(s) : 2 channels
Channel(s)_Original : 6 channels
Channel positions : Front: L C R, Side: L R, LFE
Sampling rate : 48.0 KHz
Compression mode : Lossy
Stream size : 147 MiB (8%)
Language : English

http://imdb.com/title/tt2720680/

Rotten Rating: 6.8/10
RottenTomatoes: [fresh!] 71% [audience liked it!] 99%
Genres: Drama , Western
Actors: Mads Mikkelsen , Eva Green , Jeffrey Dean Morgan , Eric Cantona , Mikael Persbrandt , Douglas Henshall , Michael Raymond-James , Jonathan Pryce , Alexander Arnold ,
Nanna Øland Fabricius , Toke Lars Bjarke , Sean Cameron Michael , Carl Nel , Kobus Swanepool , Jose Domingos
Director: Kristian Levring
Runtime: 92
Year: 2014
Plot: In 1870s America| a peaceful American settler kills his family's murderer which unleashes the fury of a notorious gang leader. His cowardly fellow townspeople then
betray him| forcing him to hunt down the outlaws alone.





uploaded


Rapidgator.net

Site BBcode/HTML Code:
Dear visitor, you went to the site as unregistered user.
We recommend you Sign up or Login to website under your name.
Information
Would you like to leave your comment? Please Login to your account to leave comments. Don't have an account? You can create a free account now.

Tag Cloud

archive of news

^
 
free html hit counter