» » » Hercules (2014) EXTENDED CUT 720p Blu-Ray [Dual-Audio]
uploaded.to



Information of news
24-11-2014, 10:30

Hercules (2014) EXTENDED CUT 720p Blu-Ray [Dual-Audio]

Category: Movies / Movies (Xvid)

Hercules (2014) EXTENDED CUT 720p Blu-Ray [Dual-Audio]
Hercules (2014) EXTENDED CUT 720p Blu-Ray [Dual-Audio]
Ratings: 6.2/10
GENRE: Action | Adventure
Total size 1.20GB



General
Format : Matroska
Format version : Version 4 / Version 2
File size : 1 007 MiB
Duration : 1h 41mn
Overall bit rate : 1 386 Kbps
Enquoted date : UTC 2014-11-17 14:49:09
Writing application : mkvmerge v7.0.0 ('Where We Going') 64bit built on Jun 9 2014 15:16:27
Writing library : libebml v1.3.0 + libmatroska v1.4.1


Hercules (2014) EXTENDED CUT 720p Blu-Ray [Dual-Audio]

Video
ID : 1
Format : AVC
Format/Info : Advanced Video quotec
Format profile : [email protected]
Format settings, CABAC : Yes
Format settings, ReFrames : 4 frames
quotec ID : V_MPEG4/ISO/AVC
Duration : 1h 41mn
Bit rate : 1 000 Kbps
Width : 1 280 pixels
Height : 536 pixels
Display aspect ratio : 2.40:1
Frame rate mode : Constant
Frame rate : 23.976 fps
Color space : YUV
Chroma subsampling : 4:2:0
Bit depth : 8 bits
Scan type : Progressive
Bits/(Pixel*Frame) : 0.061
Stream size : 708 MiB (70%)
Title : Mafiaking
Language : English
Default : Yes
Forced : No


Audio #2
ID : 3
Format : AC-3
Format/Info : Audio Coding 3
Mode extension : CM (complete main)
Format settings, Endianness : Big
quotec ID : A_AC3
Duration : 1h 41mn
Bit rate mode : Constant
Bit rate : 192 Kbps
Channel(s) : 6 channels
Channel positions : Front: L C R, Side: L R, LFE
Sampling rate : 48.0 KHz
Bit depth : 16 bits
Compression mode : Lossy
Stream size : 140 MiB (14%)
Language : English
Default : No
Forced : No


Audio #1
ID : 2
Format : MPEG Audio
Format version : Version 1
Format profile : Layer 3
quotec ID : A_MPEG/L3
quotec ID/Hint : MP3
Duration : 1h 41mn
Bit rate mode : Constant
Bit rate : 192 Kbps
Channel(s) : 2 channels
Sampling rate : 44.1 KHz
Compression mode : Lossy
Stream size : 140 MiB (14%)
Language : Hindi
Default : Yes
Forced : No

SINGLE
http://rapidgator.net/file/b0efbad9d4d787b37678b34589ba4776/Hercules_(2014)_EXTENDED_CUT_720p_Blu-Ray_[Dual-Audio].MKV.mkv.html



http://uploaded.net/file/0z7ys7dv/Hercules%20(2014)%20EXTENDED%20CUT%20720p%20Blu-Ray%20%5BDual-Audio%5D.MKV.mkv



Uploaded+Rapidgator

uploaded


Rapidgator.net

Site BBcode/HTML Code:
Dear visitor, you went to the site as unregistered user.
We recommend you Sign up or Login to website under your name.
Information
Would you like to leave your comment? Please Login to your account to leave comments. Don't have an account? You can create a free account now.

Tag Cloud

archive of news

^
 
free html hit counter