» » » Dawn Of The Planet Of The Apes (2014) 720p Blu-Ray x264 [Dual-Audio]
uploaded.to



Information of news
24-11-2014, 10:51

Dawn Of The Planet Of The Apes (2014) 720p Blu-Ray x264 [Dual-Audio]

Category: Movies / Movies (Xvid)

Dawn Of The Planet Of The Apes (2014) 720p Blu-Ray x264 [Dual-Audio]
Movie name : Dawn Of The Planet Of The Apes (2014) 720p Blu-Ray x264 [Dual-Audio]
Type h.264/x264
Language :English/Hindi
Total size 1.24 GB



A group of scientists in San Francisco struggle to stay alive in the aftermath of a plague that is wiping out humanity, while Caesar tries to maintain dominance over his community of intelligent apes.
Ratings: 7.9/10
GENRE: Action | Drama | Sci-Fi
Dawn Of The Planet Of The Apes (2014) 720p Blu-Ray x264 [Dual-Audio]

Format : Matroska
Format version : Version 4 / Version 2
File size : 1.23 GiB
Duration : 2h 10mn
Overall bit rate : 1 350 Kbps
Enquoted date : UTC 2014-11-23 13:53:52
Writing application : mkvmerge v7.0.0 ('Where We Going') 64bit built on Jun 9 2014 15:16:27
Writing library : libebml v1.3.0 + libmatroska v1.4.1

Video
ID : 1
Format : AVC
Format/Info : Advanced Video quotec
Format profile : [email protected]
Format settings, CABAC : Yes
Format settings, ReFrames : 4 frames
quotec ID : V_MPEG4/ISO/AVC
Duration : 2h 10mn
Bit rate : 900 Kbps
Width : 1 280 pixels
Height : 688 pixels
Display aspect ratio : 1.85:1
Frame rate mode : Constant
Frame rate : 23.976 fps
Color space : YUV
Chroma subsampling : 4:2:0
Bit depth : 8 bits
Scan type : Progressive
Bits/(Pixel*Frame) : 0.043
Stream size : 816 MiB (65%)
Language : English
Default : Yes
Forced : No


Audio #2
ID : 3
Format : AC-3
Format/Info : Audio Coding 3
Mode extension : CM (complete main)
Format settings, Endianness : Big
quotec ID : A_AC3
Duration : 2h 10mn
Bit rate mode : Constant
Bit rate : 224 Kbps
Channel(s) : 6 channels
Channel positions : Front: L C R, Side: L R, LFE
Sampling rate : 48.0 KHz
Bit depth : 16 bits
Compression mode : Lossy
Stream size : 209 MiB (17%)
Language : English
Default : No
Forced : No


Audio #1
ID : 2
Format : AC-3
Format/Info : Audio Coding 3
Mode extension : CM (complete main)
Format settings, Endianness : Big
quotec ID : A_AC3
Duration : 2h 10mn
Bit rate mode : Constant
Bit rate : 224 Kbps
Channel(s) : 6 channels
Channel positions : Front: L C R, Side: L R, LFE
Sampling rate : 48.0 KHz
Bit depth : 16 bits
Compression mode : Lossy
Stream size : 209 MiB (17%)
Language : Hindi
Default : Yes
Forced : No

Single
http://rapidgator.net/file/f0ed7d0c63c92c39695e8cd70753cf4a/Dawn_Of_The_Planet_Of_The_Apes_(2014)_720p_Blu-Ray_x264_[Dual-Audio][English_BD_5.1_Hindi_BD_5.1].mkv.html


http://uploaded.net/file/iuwvejih/Dawn%20Of%20The%20Planet%20Of%20The%20Apes%20%282014%29%20720p%20Blu-Ray%20x264%20%5BDual-Audio%5D%5BEnglish%20BD%205.1+Hindi%20BD%205.1%5D.mkv




Uploaded+Rapidgator
http://uploaded.net/file/6e3wjw9d/Dawn%20Of%20The%20Planet%20Of%20The%20Apes%20(2014)%20720p%20Blu-Ray%20x264%20%5BDual-Audio%5D%5BEnglish%20BD%205.1%2BHindi%20BD%205.1%5D.part2.rar
http://uploaded.net/file/z9kn167b/Dawn%20Of%20The%20Planet%20Of%20The%20Apes%20(2014)%20720p%20Blu-Ray%20x264%20%5BDual-Audio%5D%5BEnglish%20BD%205.1%2BHindi%20BD%205.1%5D.part1.rar



http://rg.to/file/a612c7e99b2c3eba2a4dfa24490c2283/Dawn_Of_The_Planet_Of_The_Apes_(2014)_720p_Blu-Ray_x264_ [Dual-Audio][English_BD_5.1_Hindi_BD_5.1].part2.rar.html
http://rg.to/file/b5a30064e7458c5650a22eed733d1e64/Dawn_Of_The_Planet_Of_The_Apes_(2014)_720p_Blu-Ray_x264_ [Dual-Audio][English_BD_5.1_Hindi_BD_5.1].part1.rar.html

uploaded


Rapidgator.net

Site BBcode/HTML Code:
Dear visitor, you went to the site as unregistered user.
We recommend you Sign up or Login to website under your name.
Information
Would you like to leave your comment? Please Login to your account to leave comments. Don't have an account? You can create a free account now.

Tag Cloud

archive of news

^
 
free html hit counter