» » » Lick Library - Jam With Gary Moore 2 DVD (2014)
uploaded.to



Information of news
  • Author: avelin
  • Date: 29-01-2015, 05:01
29-01-2015, 05:01

Lick Library - Jam With Gary Moore 2 DVD (2014)

Category: Tutorials / Other

Lick Library - Jam With Gary Moore 2 DVD (2014)

Lick Library - Jam With Gary Moore 2 DVD (2014)
DVD5 | VOB | MPEG2 2518kbps | English | 720x576 | 25fps | 2h 25mins | AC3 stereo 192kbps | 8.12 GB
Genre: Video Training

Gary Moore is rightfully remembered as a true virtuoso musician and one of the finest guitarists that the British Isles has ever produced. On this new 2 DVD and CD Set, we take a look at seven of the songs that helped cement Gary Moore's status as a true legend of Blues-Rock guitar.
Song lessons & Jam Tracks include:
Still Got The Blues
The Loner
Parisienne Walkways
Over The Hills And Far Away
Walking By Myself
Oh Pretty Woman
Empty Rooms

Jamie Humphries will guide you through each section of each song, teaching you all the main riffs and parts and guiding you through Gary Moore's solo building process.

Once you've learned the songs, there‘s professional session musician backing tracks for every song so you can jam along as if you were playing with Gary's backing band.

Lick Library - Jam With Gary Moore 2 DVD (2014)

Mediainfo:

Format : MPEG-PS
File size : 128 MiB
Duration : 6mn 27s
Overall bit rate mode : Variable
Overall bit rate : 2 765 Kbps
Video #224
ID : 224 (0xE0)
Format : MPEG Video
Format version : Version 2
Format profile : [email protected]
Format settings, BVOP : Yes
Format settings, Matrix : Custom
Format settings, GOP : Variable
Duration : 24ms
Bit rate mode : Variable
Bit rate : 2 518 Kbps
Maximum bit rate : 6 000 Kbps
Width : 720 pixels
Height : 576 pixels
Display aspect ratio : 16:9
Frame rate : 25.000 fps
Standard : PAL
Color space : YUV
Chroma subsampling : 4:2:0
Bit depth : 8 bits
Scan type : Interlaced
Scan order : Bottom Field First
Compression mode : Lossy
Bits/(Pixel*Frame) : 0.243
Time code of first frame : 00:00:00:00
Time code source : Group of pictures header
Stream size : 12.3 KiB (0%)
Audio #189-128
ID : 189 (0xBD)-128 (0x80)
Format : AC-3
Format/Info : Audio Coding 3
Mode extension : CM (complete main)
Format settings, Endianness : Big
Muxing mode : DVD-Video
Duration : 6mn 27s
Bit rate mode : Constant
Bit rate : 192 Kbps
Channel(s) : 2 channels
Channel positions : Front: L R
Sampling rate : 48.0 KHz
Bit depth : 16 bits
Compression mode : Lossy
Stream size : 8.87 MiB (7%)




Lick Library - Jam With Gary Moore 2 DVD (2014)

qandr.Lick.Library..Jam.With.Gary.Moore.2.DVD.2014.part01.rar
qandr.Lick.Library..Jam.With.Gary.Moore.2.DVD.2014.part02.rar
qandr.Lick.Library..Jam.With.Gary.Moore.2.DVD.2014.part03.rar
qandr.Lick.Library..Jam.With.Gary.Moore.2.DVD.2014.part04.rar
qandr.Lick.Library..Jam.With.Gary.Moore.2.DVD.2014.part05.rar
qandr.Lick.Library..Jam.With.Gary.Moore.2.DVD.2014.part06.rar
qandr.Lick.Library..Jam.With.Gary.Moore.2.DVD.2014.part07.rar
qandr.Lick.Library..Jam.With.Gary.Moore.2.DVD.2014.part08.rar
qandr.Lick.Library..Jam.With.Gary.Moore.2.DVD.2014.part09.rar
qandr.Lick.Library..Jam.With.Gary.Moore.2.DVD.2014.part10.rar
qandr.Lick.Library..Jam.With.Gary.Moore.2.DVD.2014.part11.rar
qandr.Lick.Library..Jam.With.Gary.Moore.2.DVD.2014.part12.rar
qandr.Lick.Library..Jam.With.Gary.Moore.2.DVD.2014.part13.rar
qandr.Lick.Library..Jam.With.Gary.Moore.2.DVD.2014.part14.rar
qandr.Lick.Library..Jam.With.Gary.Moore.2.DVD.2014.part15.rar



Lick Library - Jam With Gary Moore 2 DVD (2014)

qandr.Lick.Library..Jam.With.Gary.Moore.2.DVD.2014.part01.rar
qandr.Lick.Library..Jam.With.Gary.Moore.2.DVD.2014.part02.rar
qandr.Lick.Library..Jam.With.Gary.Moore.2.DVD.2014.part03.rar
qandr.Lick.Library..Jam.With.Gary.Moore.2.DVD.2014.part04.rar
qandr.Lick.Library..Jam.With.Gary.Moore.2.DVD.2014.part05.rar
qandr.Lick.Library..Jam.With.Gary.Moore.2.DVD.2014.part06.rar
qandr.Lick.Library..Jam.With.Gary.Moore.2.DVD.2014.part07.rar
qandr.Lick.Library..Jam.With.Gary.Moore.2.DVD.2014.part08.rar
qandr.Lick.Library..Jam.With.Gary.Moore.2.DVD.2014.part09.rar
qandr.Lick.Library..Jam.With.Gary.Moore.2.DVD.2014.part10.rar
qandr.Lick.Library..Jam.With.Gary.Moore.2.DVD.2014.part11.rar
qandr.Lick.Library..Jam.With.Gary.Moore.2.DVD.2014.part12.rar
qandr.Lick.Library..Jam.With.Gary.Moore.2.DVD.2014.part13.rar
qandr.Lick.Library..Jam.With.Gary.Moore.2.DVD.2014.part14.rar
qandr.Lick.Library..Jam.With.Gary.Moore.2.DVD.2014.part15.rar


uploaded


Rapidgator.net

Site BBcode/HTML Code:
Dear visitor, you went to the site as unregistered user.
We recommend you Sign up or Login to website under your name.
Information
Would you like to leave your comment? Please Login to your account to leave comments. Don't have an account? You can create a free account now.

Tag Cloud

archive of news

^
 
free html hit counter