» » Lick Library - Learn to play Rolling Stones Vol 2 (2 DVD)
uploaded.to



Information of news
  • Author: BaDshaH
  • Date: 21-02-2015, 13:54
21-02-2015, 13:54

Lick Library - Learn to play Rolling Stones Vol 2 (2 DVD)

Category: Tutorials




Learn five Rolling Stones tracks note for note, guitar lessons by Danny Gill This superb DVD will teach you some legendary Keith Richards riffs from the Stones fifty year career as one of the greatest rock bands ever! Tracks include; Gimme Shelter Tumbling Dice Street Fighting Man Sympathy For The Devil Start Me Up Danny Gill is a former pupil of Joe Satriani, and co-author of the Musicians Institute Rock Lead Guitar series. His songs have appeared on numerous TV shows including 'The Osbournes' as well as motion picture soundtracks such as 'Insomnia' and 'Under Siege'.
Danny Gill is, without a doubt, the most loved tutor by our community. With an incredible array of DVDs and web lessons for LickLibrary covering a wide variety of topics all of which he covers with incredible detail, it's no wonder he carries as much respect as he does.

As an ex student of Joe Satriani, Danny rose quickly through the ranks and found himself as a teacher at the prestigious Musicians Institute in Holywood where he stayed for 13 years, during those years he had his first record deal with his first band Hericane Alice on Atlantic Records), appeared on MTV, toured the USA and opened for bands such as Whitesnake & Skid Row. He then went on to record 3 CDs with Medicine Wheel, got to tour in Japan before joining Speak No Evil with who he released 2 CDs with Universal Records and opened for bands such as Megadeth, Staind, and System of a Down.

Now residing in Sweden, Danny still has a strong impact on the guitar world with his series of MI books and his ever expanding catalogue of LickLibrary DVDs.


Lick Library - Learn to play Rolling Stones Vol 2 (2 DVD)


Format : MPEG-PS
File size : 199 MiB
Duration : 6mn 29s
Overall bit rate mode : Variable
Overall bit rate : 4 281 Kbps
Video #224
ID : 224 (0xE0)
Format : MPEG Video
Format version : Version 2
Format profile : [email protected]
Format settings, BVOP : Yes
Format settings, Matrix : Custom
Format settings, GOP : M=3, N=15
Duration : 6mn 29s
Bit rate mode : Variable
Bit rate : 4 004 Kbps
Maximum bit rate : 7 000 Kbps
Width : 720 pixels
Height : 576 pixels
Display aspect ratio : 16:9
Frame rate : 25.000 fps
Standard : PAL
Color space : YUV
Chroma subsampling : 4:2:0
Bit depth : 8 bits
Scan type : Interlaced
Scan order : Bottom Field First
Compression mode : Lossy
Bits/(Pixel*Frame) : 0.386
Time code of first frame : 00:00:00:00
Time code source : Group of pictures header
Stream size : 186 MiB (94%)
Audio #189-128
ID : 189 (0xBD)-128 (0x80)
Format : AC-3
Format/Info : Audio Coding 3
Mode extension : CM (complete main)
Format settings, Endianness : Big
Muxing mode : DVD-Video
Duration : 6mn 29s
Bit rate mode : Constant
Bit rate : 192 Kbps
Channel(s) : 2 channels
Channel positions : Front: L R
Sampling rate : 48.0 KHz
Bit depth : 16 bits
Compression mode : Lossy
Stream size : 8.92 MiB (4%)


Lick Library - Learn to play Rolling Stones Vol 2 (2 DVD)

Lick Library - Learn to play Rolling Stones Vol 2 (2 DVD)

Lick Library - Learn to play Rolling Stones Vol 2 (2 DVD)

Lick Library - Learn to play Rolling Stones Vol 2 (2 DVD)


I recommends Buy premimum account for High speed+parallel downloads!

rapidgator

http://rapidgator.net/file/f86c71a458920d6c45716bdeab60800e/zyedz.L.L.L.t.p.R.S.V.2.2.DVD.part01.rar.html
http://rapidgator.net/file/fd1b642e99afe7bf99102dcb3c898023/zyedz.L.L.L.t.p.R.S.V.2.2.DVD.part02.rar.html
http://rapidgator.net/file/813b95e72c75f0bc7201b2531ed636a8/zyedz.L.L.L.t.p.R.S.V.2.2.DVD.part03.rar.html
http://rapidgator.net/file/88b7ec22adcd28ccc99f3bf2c64a4dc7/zyedz.L.L.L.t.p.R.S.V.2.2.DVD.part04.rar.html
http://rapidgator.net/file/e7744aec982a76828584f2b26fdde3e4/zyedz.L.L.L.t.p.R.S.V.2.2.DVD.part05.rar.html
http://rapidgator.net/file/c30e8d2b77a089cb9e0b2a1860560ce2/zyedz.L.L.L.t.p.R.S.V.2.2.DVD.part06.rar.html
http://rapidgator.net/file/924f949e10aa98ed2a7d4d11d45fc1bd/zyedz.L.L.L.t.p.R.S.V.2.2.DVD.part07.rar.html
http://rapidgator.net/file/d5506ed82d74951f5165df6017e3b89f/zyedz.L.L.L.t.p.R.S.V.2.2.DVD.part08.rar.html
http://rapidgator.net/file/1178cfbf3cb7dfd6eb96fd9704fa69ae/zyedz.L.L.L.t.p.R.S.V.2.2.DVD.part09.rar.html
http://rapidgator.net/file/636bae5d8265060a68091b88f2c41600/zyedz.L.L.L.t.p.R.S.V.2.2.DVD.part10.rar.html
http://rapidgator.net/file/0e2a7716e6cecde489b22b881626605d/zyedz.L.L.L.t.p.R.S.V.2.2.DVD.part11.rar.html
http://rapidgator.net/file/a80037764f2c6fde59be50675eac852d/zyedz.L.L.L.t.p.R.S.V.2.2.DVD.part12.rar.html
http://rapidgator.net/file/69d5f13c6f392439321e4c3c9300f0ab/zyedz.L.L.L.t.p.R.S.V.2.2.DVD.part13.rar.html
http://rapidgator.net/file/69547ba991fc2f0cbfd4f487d8f201fc/zyedz.L.L.L.t.p.R.S.V.2.2.DVD.part14.rar.html
http://rapidgator.net/file/f599b642f4d2fb84dcb185f326fb691d/zyedz.L.L.L.t.p.R.S.V.2.2.DVD.part15.rar.html


Download From Nitroflare


uploaded


uploaded


Rapidgator.net

Site BBcode/HTML Code:
Dear visitor, you went to the site as unregistered user.
We recommend you Sign up or Login to website under your name.
Information
Would you like to leave your comment? Please Login to your account to leave comments. Don't have an account? You can create a free account now.

Tag Cloud

archive of news

^
 
free html hit counter