» » Growing Cities [1 WebRip (MPEG4)]
uploaded.to



Information of news
26-03-2015, 12:54

Growing Cities [1 WebRip (MPEG4)]

Category: Tutorials

Growing Cities [1 WebRip (MPEG4)]

Growing Cities [1 WebRip (MPEG4)]
English | Size: 573.54 MB (601,401,047 bytes)
Category: Tutorial

From rooftop farmers to backyard beekeepers, Americans are growing food like never before. Growing Cities goes coast to coast to tell the inspiring stories of these intrepid urban farmers, activists, and everyday city-dwellers who are challenging the way this country feeds itself. From those growing in backyards to make ends meet to educators teaching kids to eat healthier, viewers find that urban farming is about much more than simply good food.




Growing Cities lives and dies on the people it interviews. The subjects. The workers on the front lines. What battle are they fighting? This is a film that explores urban farming, the need for diversified sources of food, and innovators all over the country who are planting and reaping in reclaimed and ruined urban spaces, providing food for folks who live amidst fresh food "deserts".

DETAILS
Running Time : 92m 53s
Release Date : 2013
Featuring : Will Allen
Jennifer Blecha
Rose Hayden-Smith
Andrew Monbouquette
Joel Salatin
Dan Susman

General
Complete name : Growing Cities.mp4
Format : MPEG-4
Format profile : Base Media / Version 2
Codec ID : mp42
File size : 574 MiB
Duration : 1h 32mn
Overall bit rate mode : Variable
Overall bit rate : 863 Kbps
Encoded date : UTC 2015-02-11 02:15:10
Tagged date : UTC 2015-02-11 02:15:10

Video
ID : 1
Format : AVC
Format/Info : Advanced Video Codec
Format profile : [email protected]
Format settings, CABAC : Yes
Format settings, Reframes : 4 frames
Codec ID : avc1
Codec ID/Info : Advanced Video Coding
Duration : 1h 32mn
Bit rate : 750 Kbps
Width : 640 pixels
Height : 360 pixels
Display aspect ratio : 16:9
frame rate mode : Constant
frame rate : 29.970 fps
Color space : YUV
Chroma subsampling : 4:2:0
Bit depth : 8 bits
Scan type : Progressive
Bits/(Pixel*frame) : 0.109
Stream size : 496 MiB (86%)
Writing library : x264 core 142 r11 24e4fed
Encoded date : UTC 2015-02-11 02:15:10
Tagged date : UTC 2015-02-11 02:15:10

Audio
ID : 2
Format : AAC
Format/Info : Advanced Audio Codec
Format profile : LC
Codec ID : 40
Duration : 1h 32mn
Bit rate mode : Variable
Bit rate : 112 Kbps
Channel(s) : 2 channels
Channel positions : Front: L R
Sampling rate : 48.0 KHz
Compression mode : Lossy
Stream size : 74.4 MiB (13%)
Encoded date : UTC 2015-02-11 02:15:10
Tagged date : UTC 2015-02-11 02:15:10





Links are Interchangeable - No Password - Single Extraction

uploaded


Rapidgator.net

Site BBcode/HTML Code:
Dear visitor, you went to the site as unregistered user.
We recommend you Sign up or Login to website under your name.
Information
Would you like to leave your comment? Please Login to your account to leave comments. Don't have an account? You can create a free account now.

Tag Cloud

archive of news

^
 
free html hit counter