» » Laracasts - How to Build Command-Line Apps (2014)
uploaded.to



Information of news
  • Author: kityvn
  • Date: 27-03-2015, 09:50
27-03-2015, 09:50

Laracasts - How to Build Command-Line Apps (2014)

Category: Tutorials



In this series, we'll learn how how to build command-line apps from scratch, using Symfony's excellent console component. In no time, you'll be whipping up executables to perform all sorts of tasks.




1
Introduction
1:23
2
Hello World
7:43
3
Use Classes for Console Commands
5:57
4
Case Study: The Laravel Installer
14:20
5
Rendering Tabular Data
2:19
6
Exercise: A Command-Line Task App
14:22

Format : MPEG-4
Format profile : Base Media / Version 2
Codec ID : mp42
File size : 36.0 MiB
Duration : 14mn 22s
Overall bit rate mode : Variable
Overall bit rate : 350 Kbps
Encoded date : UTC 2014-12-06 18:31:36
Tagged date : UTC 2014-12-06 18:31:36
Video #1
ID : 1
Format : AVC
Format/Info : Advanced Video Codec
Format profile : [email protected]
Format settings, CABAC : Yes
Format settings, ReFrames : 4 frames
Codec ID : avc1
Codec ID/Info : Advanced Video Coding
Duration : 14mn 22s
Bit rate : 200 Kbps
Width : 1 152 pixels
Height : 720 pixels
Display aspect ratio : 16:10
Frame rate mode : Constant
Frame rate : 15.000 fps
Color space : YUV
Chroma subsampling : 4:2:0
Bit depth : 8 bits
Scan type : Progressive
Bits/(Pixel*Frame) : 0.016
Stream size : 20.5 MiB (57%)
Writing library : x264 core 142 r11 24e4fed
Encoding settings : cabac=1 / ref=3 / deblock=1:0:0 / analyse=0x3:0x113 / me=hex / subme=7 / psy=1 / psy_rd=1.00:0.00 / mixed_ref=1 / me_range=16 / chroma_me=1 / trellis=1 / 8x8dct=1 / cqm=0 / deadzone=21,11 / fast_pskip=1 / chroma_qp_offset=-2 / threads=48 / lookahead_threads=5 / sliced_threads=0 / nr=0 / decimate=1 / interlaced=0 / bluray_compat=0 / stitchable=1 / constrained_intra=0 / bframes=3 / b_pyramid=2 / b_adapt=1 / b_bias=0 / direct=1 / weightb=1 / open_gop=0 / weightp=2 / keyint=infinite / keyint_min=15 / scenecut=40 / intra_refresh=0 / rc_lookahead=40 / rc=2pass / mbtree=1 / bitrate=200 / ratetol=1.0 / qcomp=0.60 / qpmin=5 / qpmax=69 / qpstep=4 / cplxblur=20.0 / qblur=0.5 / vbv_maxrate=2750 / vbv_bufsize=7500 / nal_hrd=none / filler=0 / ip_ratio=1.40 / aq=1:1.00
Encoded date : UTC 2014-12-06 18:31:36
Tagged date : UTC 2014-12-06 18:31:36
Color primaries : BT.709
Transfer characteristics : BT.709
Matrix coefficients : BT.709
Audio #2
ID : 2
Format : AAC
Format/Info : Advanced Audio Codec
Format profile : LC
Codec ID : 40
Duration : 14mn 22s
Bit rate mode : Variable
Bit rate : 147 Kbps
Channel(s) : 2 channels
Channel positions : Front: L R
Sampling rate : 48.0 KHz
Compression mode : Lossy
Stream size : 15.1 MiB (42%)
Encoded date : UTC 2014-12-06 18:31:36
Tagged date : UTC 2014-12-06 18:31:36


Laracasts - How to Build Command-Line Apps (2014)

Laracasts - How to Build Command-Line Apps (2014)

Laracasts - How to Build Command-Line Apps (2014)

I recommends Buy premimum account for High speed+parallel downloads!

rapidgator


uploaded


uploaded


Rapidgator.net

Site BBcode/HTML Code:
Dear visitor, you went to the site as unregistered user.
We recommend you Sign up or Login to website under your name.
Information
Would you like to leave your comment? Please Login to your account to leave comments. Don't have an account? You can create a free account now.

Tag Cloud

archive of news

^
 
free html hit counter