» » B.B. King: Live at the Royal Albert Hall (2011) [BDRip 1080p]
uploaded.to



Information of news
20-05-2015, 15:57

B.B. King: Live at the Royal Albert Hall (2011) [BDRip 1080p]

Category: Music

B.B. King: Live at the Royal Albert Hall (2011) [BDRip 1080p]

B.B. King: Live at the Royal Albert Hall (2011)
BDRip 1080p | MKV | MPEG4 AVC 12.9 Mbps 1920*1080 pixels / 16:9 / 23.976 fps / [email protected] | 7.95 GB
Audio: English DTS 1510 Kbps 6 channels / Front: L C R, Side: L R, LFE / 48.0 KHz / 24 bits
Genre: Blues | Length: 01:20:00 | Nitroflare/Uploadable

On June 28, 2011, the "King of the Blues" B.B. King played to an adoring sold-out crowd at London's spectacular Royal Albert Hall. It was another unforgettable night in the career of one of the most legendary bluesmen to ever pick up a guitar.
Joining the illustrious Mr. King onstage were guitar virtuoso Derek Trucks, "songbird extraordinaire" Susan Tedeschi, The Rolling Stones' Ronnie Wood, Simply Red's Mick Hucknall and former Guns N' Roses axeman Slash.
B.B. and friends delighted the London crowd with favorites "I Need You So," "Key To The Highway" and "The Thrill Is Gone," trading solos, verses and endless admiration. The magical evening concluded with everyone onstage participating in a rousing rendition of "When The Saints Go Marching In."

B.B. King: Live at the Royal Albert Hall (2011) [BDRip 1080p]

B.B. King: Live at the Royal Albert Hall (2011) [BDRip 1080p]

B.B. King: Live at the Royal Albert Hall (2011) [BDRip 1080p]

B.B. King: Live at the Royal Albert Hall (2011) [BDRip 1080p]


Tracklist
I Need You So
Key To The Highway
See That My Grave Is Kept Clean
All Over Again
Rock Me Baby
You Are My Sunshine
B.B. Jams With Guests
The Thrill Is Gone
Guess Who
When The Saints Go Marching In

General
Unique ID : 202880900437843227853197864078329526057 (0x98A170AC57DCFB5898A56A6811B83729)
Complete name : B.B.King.Live.at.The.Royal.Albert.Hall.2011.BluRay.1080p.x264-MySiLU.mkv
Format : Matroska
Format version : Version 2
File size : 7.95 GiB
Duration : 1h 20mn
Overall bit rate : 14.2 Mbps
Encoded date : UTC 2012-03-20 09:01:32
Writing application : mkvmerge v5.1.0 ('And so it goes') built on Nov 28 2011 23:58:28
Writing library : libebml v1.2.3 + libmatroska v1.3.0

Video
ID : 1
Format : AVC
Format/Info : Advanced Video Codec
Format profile : [email protected]
Format settings, CABAC : Yes
Format settings, ReFrames : 4 frames
Muxing mode : Header stripping
Codec ID : V_MPEG4/ISO/AVC
Duration : 1h 20mn
Bit rate : 12.9 Mbps
Width : 1 920 pixels
Height : 1 080 pixels
Display aspect ratio : 16:9
Frame rate : 23.976 fps
Color space : YUV
Chroma subsampling : 4:2:0
Bit depth : 8 bits
Scan type : Progressive
Bits/(Pixel*Frame) : 0.259
Stream size : 6.95 GiB (87%)
Writing library : x264 core 116 r2074 2641b9e
Language : English
Default : Yes
Forced : No

Audio
ID : 2
Format : DTS
Format/Info : Digital Theater Systems
Muxing mode : Header stripping
Codec ID : A_DTS
Duration : 1h 20mn
Bit rate mode : Constant
Bit rate : 1 510 Kbps
Channel(s) : 6 channels
Channel positions : Front: L C R, Side: L R, LFE
Sampling rate : 48.0 KHz
Bit depth : 24 bits
Compression mode : Lossy
Stream size : 866 MiB (11%)
Language : English
Default : Yes
Forced : No
Download link:
Ryushare.com:
5nvu2.B.B..King.Live.at.the.Royal.Albert.Hall.2011.BDRip.1080p.part01.rar
5nvu2.B.B..King.Live.at.the.Royal.Albert.Hall.2011.BDRip.1080p.part02.rar
5nvu2.B.B..King.Live.at.the.Royal.Albert.Hall.2011.BDRip.1080p.part03.rar
5nvu2.B.B..King.Live.at.the.Royal.Albert.Hall.2011.BDRip.1080p.part04.rar
5nvu2.B.B..King.Live.at.the.Royal.Albert.Hall.2011.BDRip.1080p.part05.rar
5nvu2.B.B..King.Live.at.the.Royal.Albert.Hall.2011.BDRip.1080p.part06.rar
5nvu2.B.B..King.Live.at.the.Royal.Albert.Hall.2011.BDRip.1080p.part07.rar
5nvu2.B.B..King.Live.at.the.Royal.Albert.Hall.2011.BDRip.1080p.part08.rar
5nvu2.B.B..King.Live.at.the.Royal.Albert.Hall.2011.BDRip.1080p.part09.rar

Nitroflare:
5nvu2.B.B..King.Live.at.the.Royal.Albert.Hall.2011.BDRip.1080p.part01.rar
5nvu2.B.B..King.Live.at.the.Royal.Albert.Hall.2011.BDRip.1080p.part02.rar
5nvu2.B.B..King.Live.at.the.Royal.Albert.Hall.2011.BDRip.1080p.part03.rar
5nvu2.B.B..King.Live.at.the.Royal.Albert.Hall.2011.BDRip.1080p.part04.rar
5nvu2.B.B..King.Live.at.the.Royal.Albert.Hall.2011.BDRip.1080p.part05.rar
5nvu2.B.B..King.Live.at.the.Royal.Albert.Hall.2011.BDRip.1080p.part06.rar
5nvu2.B.B..King.Live.at.the.Royal.Albert.Hall.2011.BDRip.1080p.part07.rar
5nvu2.B.B..King.Live.at.the.Royal.Albert.Hall.2011.BDRip.1080p.part08.rar
5nvu2.B.B..King.Live.at.the.Royal.Albert.Hall.2011.BDRip.1080p.part09.rar

Uploaded.net:
5nvu2.B.B..King.Live.at.the.Royal.Albert.Hall.2011.BDRip.1080p.part01.rar
5nvu2.B.B..King.Live.at.the.Royal.Albert.Hall.2011.BDRip.1080p.part02.rar
5nvu2.B.B..King.Live.at.the.Royal.Albert.Hall.2011.BDRip.1080p.part03.rar
5nvu2.B.B..King.Live.at.the.Royal.Albert.Hall.2011.BDRip.1080p.part04.rar
5nvu2.B.B..King.Live.at.the.Royal.Albert.Hall.2011.BDRip.1080p.part05.rar
5nvu2.B.B..King.Live.at.the.Royal.Albert.Hall.2011.BDRip.1080p.part06.rar
5nvu2.B.B..King.Live.at.the.Royal.Albert.Hall.2011.BDRip.1080p.part07.rar
5nvu2.B.B..King.Live.at.the.Royal.Albert.Hall.2011.BDRip.1080p.part08.rar
5nvu2.B.B..King.Live.at.the.Royal.Albert.Hall.2011.BDRip.1080p.part09.rar
Links are Interchangeable - No Password - Single Extraction

uploaded


Rapidgator.net

Site BBcode/HTML Code:
Dear visitor, you went to the site as unregistered user.
We recommend you Sign up or Login to website under your name.
Information
Would you like to leave your comment? Please Login to your account to leave comments. Don't have an account? You can create a free account now.

Tag Cloud

archive of news

^
 
free html hit counter