» » » Kelby Training: Wedding Photography - Rapid-Fire Tips and Tricks [repost]
uploaded.to



Information of news
21-05-2015, 08:48

Kelby Training: Wedding Photography - Rapid-Fire Tips and Tricks [repost]

Category: Tutorials / Photoshop, Photography

Kelby Training: Wedding Photography - Rapid-Fire Tips and Tricks [repost]

Kelby Training: Wedding Photography - Rapid-Fire Tips and Tricks
WEBRip | English | FLV | 852 x 480 | AVC ~872 kbps | 23.976 fps
MP3 | 128 Kbps | 44.1 KHz | 2 channels | 01:09:34 | 638.8 MB
Genre: Video Tutorial / Video and Photography, Wedding

David Ziser is back with a brand new, rapid-fire learning session comprised of the many wedding photography tips and tricks he's discovered in his 25-year career. In the end, you'll come away with an arsenal of solid techniques that you can put to work right away for better photos and higher profits.
Topics include:
01 Shooting in Natural Surroundings 3:12
02 Avoiding the Dappled Lighting 1:43
03 Building the Photograph 3:43
04 Longer Focal Length 2:32
05 Head and Shoulders Shot 7:38
06 Pampas Grass Background 6:21
07 Bright, Direct Sunlight 2:58
08 Checking for Blinkies 4:06
09 Brick Background 9:40
10 Working with Available Light 4:04
11 Leading Lines 4:29
12 Finding a Location 4:18
13 Classic Profile Views 3:41
14 Directional Light 2:43
15 Posing for the Final Shots 8:24

General
Complete name : 01 Shooting in Natural Surroundings.flv
Format : Flash Video
File size : 36.9 MiB
Duration : 3mn 12s
Overall bit rate : 1 610 Kbps
Encoded date : Wed Nov 18 18:33:26 2009
Writing application : Erik Kuna / Sorenson Squeeze / Sorenson Squeeze

Video
Format : VP6
Codec ID : 4
Duration : 3mn 12s
Bit rate : 872 Kbps
Width : 852 pixels
Height : 480 pixels
Display aspect ratio : 16:9
Frame rate mode : Constant
Frame rate : 23.976 fps
Bit depth : 8 bits
Bits/(Pixel*Frame) : 0.089
Stream size : 20.0 MiB (54%)

Audio
Format : MPEG Audio
Format version : Version 1
Format profile : Layer 3
Mode : Joint stereo
Mode extension : MS Stereo
Codec ID : 2
Codec ID/Hint : MP3
Duration : 3mn 12s
Bit rate mode : Constant
Bit rate : 128 Kbps
Channel(s) : 2 channels
Sampling rate : 44.1 KHz
Compression mode : Lossy
Stream size : 2.93 MiB (8%)

Screenshots

Kelby Training: Wedding Photography - Rapid-Fire Tips and Tricks [repost]

Kelby Training: Wedding Photography - Rapid-Fire Tips and Tricks [repost]

Kelby Training: Wedding Photography - Rapid-Fire Tips and Tricks [repost]

Kelby Training: Wedding Photography - Rapid-Fire Tips and Tricks [repost]


Download link:
Links are Interchangeable - No Password - Single Extraction

uploaded


Rapidgator.net

Site BBcode/HTML Code:
Dear visitor, you went to the site as unregistered user.
We recommend you Sign up or Login to website under your name.
Information
Would you like to leave your comment? Please Login to your account to leave comments. Don't have an account? You can create a free account now.

Tag Cloud

archive of news

^
 
free html hit counter