» » Quincy Jones & Friends: 50 Years in Music - Live at Montreux (1996) [HDTV 1080p]
uploaded.to



Information of news
22-05-2015, 16:43

Quincy Jones & Friends: 50 Years in Music - Live at Montreux (1996) [HDTV 1080p]

Category: Music

Quincy Jones & Friends: 50 Years in Music - Live at Montreux (1996) [HDTV 1080p]

Quincy Jones & Friends: 50 Years in Music - Live at Montreux (1996)
HDTV 1080p | MP4 | 1920x1080 (16:9), 25.00 fps, AVC, 9486 Кбит, 0.182 bits/pixel
Audio: 48.0 KHz, AAC-LC, 2 ch, stereo, 128-384 Kbps VBR | 8.82 GB
Jazz | Length: 02:02:48 | Uploadable/Nitroflare

Quincy Jones is an American music legend and one of the most successful black American artists of all time. He has excelled as a performer, arranger, composer and producer (he produced Michael Jackson's "Thriller", the best selling album of all time worldwide). Having previously received an astonishing 27 Grammy Awards, Quincy Jones will be specially honored at the 2008 Awards in February just prior to his 75th birthday in March. This Montreux concert from 1996 was put together by Quincy to celebrate 50 years of making music and features guest appearances by many of the artists that he has worked with over the years.

Quincy Jones & Friends: 50 Years in Music - Live at Montreux (1996) [HDTV 1080p]

Quincy Jones & Friends: 50 Years in Music - Live at Montreux (1996) [HDTV 1080p]

Quincy Jones & Friends: 50 Years in Music - Live at Montreux (1996) [HDTV 1080p]

Quincy Jones & Friends: 50 Years in Music - Live at Montreux (1996) [HDTV 1080p]


Tracklist
1) Kingfish
2) Stockholm Sweetnin' (with David Sanborn)
3) Perdido (with Patti Austin)
4) The Midnight Sun Will Never Set (with David Sanborn)
5) Tickle Toe (with James Morrison)
6) Moanin' (with James Morrison)
7) Shiny Stockings (with Patti Austin)
8) Airmail Special (with Gerald Albright, James Morrison, and David Sanborn)
9) In The Heat Of The Night (with Mick Hucknall)
10) Everything Must Change (with Mick Hucknall and Chaka Khan)
11) Grace Notes (with Toots Thielemans)
12) Walking In Space (with Patti Austin, Gerald Albright, James Morrison, and David Sanborn)
13) After You've Gone (with Phil Collins)
14) Miss Celie's Blues (with Brody Buster and Chaka Khan)
15) Dirty Dozens (with Patti Austin and Chaka Khan)
16) Setembro (Brazilian Wedding Song) (with Patti Austin and Toots Thielemans)
17) Angel (with Mick Hucknall)
18) Do Nothing Till You Hear From Me (with Gerald Albright and Phil Collins)
19) Brown Ballad (with Toots Thielemans)
20) Let The Good Times Roll (with Gerald Albright, Brody Buster, Phil Collins, Mick Hucknall, Chaka Khan, and Claude Nobs)

Quincy Jones & Friends: 50 Years in Music - Live at Montreux (1996) [HDTV 1080p]

General
Complete name : C:\Users\ggu\Desktop\ggu\Quincy Jones 50 Years in Music 1996\Quincy Jones - 50 Years in Music - Live at Montreux 1996.mp4
Format : MPEG-4
Format profile : Base Media / Version 2
Codec ID : mp42
File size : 8.82 GiB
Duration : 2h 2mn
Overall bit rate mode : Variable
Overall bit rate : 10.3 Mbps
Encoded date : UTC 2014-02-06 08:51:37
Tagged date : UTC 2014-02-06 08:51:37

Video
ID : 2
Format : AVC
Format/Info : Advanced Video Codec
Format profile : [email protected]
Format settings, CABAC : Yes
Format settings, ReFrames : 2 frames
Format settings, GOP : M=3, N=30
Codec ID : avc1
Codec ID/Info : Advanced Video Coding
Duration : 2h 2mn
Source duration : 2h 2mn
Bit rate mode : Variable
Bit rate : 9 486 Kbps
Maximum bit rate : 10.0 Mbps
Width : 1 920 pixels
Height : 1 088 pixels
Original height : 1 080 pixels
Display aspect ratio : 16:9
Original display aspect ratio : 16:9
Frame rate mode : Constant
Frame rate : 25.000 fps
Original frame rate : 12.500 fps
Color space : YUV
Chroma subsampling : 4:2:0
Bit depth : 8 bits
Scan type : Progressive
Bits/(Pixel*Frame) : 0.182
Stream size : 8.14 GiB (92%)
Source stream size : 8.49 GiB (96%)
Language : English
Encoded date : UTC 2014-02-06 08:51:37
Tagged date : UTC 2014-02-06 08:51:37

Audio
ID : 1
Format : AAC
Format/Info : Advanced Audio Codec
Format profile : LC
Codec ID : 40
Duration : 2h 2mn
Source duration : 2h 2mn
Bit rate mode : Constant
Bit rate : 384 Kbps
Nominal bit rate : 128 Kbps
Channel(s) : 2 channels
Channel positions : Front: L R
Sampling rate : 48.0 KHz
Compression mode : Lossy
Stream size : 337 MiB (4%)
Source stream size : 337 MiB (4%)
Language : English
Encoded date : UTC 2014-02-06 08:51:37
Tagged date : UTC 2014-02-06 08:51:37
mdhd_Duration : 7368010
Download link:
Links are Interchangeable - No Password - Single Extraction

uploaded


Rapidgator.net

Site BBcode/HTML Code:
Dear visitor, you went to the site as unregistered user.
We recommend you Sign up or Login to website under your name.
Information
Would you like to leave your comment? Please Login to your account to leave comments. Don't have an account? You can create a free account now.

Tag Cloud

archive of news

^
 
free html hit counter