» » Majesty - Generation Steel (2015)
uploaded.to



Information of news
23-05-2015, 08:26

Majesty - Generation Steel (2015)

Category: Music

Majesty - Generation Steel (2015)

Majesty - Generation Steel (2015)
EAC Rip | FLAC (Img) + Cue + Log ~ 410 Mb | MP3 CBR320 ~ 141 Mb
Covers Included (JPG, 300 dpi) | RAR 5% Recovery
Heavy/Power Metal | NoiseArt Records #NARCD049

Majesty (also known as Metal Force between 2008 and 2011) is a heavy metal band from Germany. The band is heavily influenced by Manowar both musically and lyrically, and even had former Manowar guitarist Ross "The Boss" Friedman appear on their second album, Sword & Sorcery. They call their music True Metal (which is a common term in the Heavy Metal scene for traditional heavy metal or power metal with idealized, traditional and fantasy based lyrics and stage-appearance) and the band is usually dressed in leather. The band leader Tarek Maghary also the author of the Dawnrider project, a metal concept album featuring many other musicians like Rob Rock, Ross The Boss, Michael Seifert (Rebellion). Other contributors are from Manilla Road, Wizard, Helstar and Paragon. In March 2015 the band's ninth studio album, "Generation Steel" was released via NoiseArt Records.
Track List:

01. Hawks Will Fly [05:16]
02. Generation Steel [04:54]
03. Circle Of Rage [04:25]
04. Shout At The World [05:35]
05. Damnation Hero [04:30]
06. Children Of The Dark [05:51]
07. The Last Reward [06:21]
08. Knights Of The Empire [04:36]
09. Rulers Of The World [05:10]
10. War For Metal [05:33]

Exact Audio Copy V1.0 beta 3 from 29. August 2011

EAC extraction logfile from 4. April 2015, 6:51

Majesty / Generation Steel

Used drive : PLEXTOR DVDR PX-860A Adapter: 4 ID: 0

Read mode : Secure
Utilize accurate stream : Yes
Defeat audio cache : Yes
Make use of C2 pointers : No

Read offset correction : 96
Overread into Lead-In and Lead-Out : No
Fill up missing offset samples with silence : Yes
Delete leading and trailing silent blocks : No
Null samples used in CRC calculations : Yes
Used interface : Installed external ASPI interface

Used output format : User Defined Encoder
Selected bitrate : 128 kBit/s
Quality : High
Add ID3 tag : Yes
Command line compressor : G:\Program Files (x86)\Exact Audio Copy\Flac\flac.exe
Additional command line options : -V -8 -T "Date=%year%" -T "Genre=%genre%" %source%

TOC of the extracted CD

Track | Start | Length | Start sector | End sector
---------------------------------------------------------
1 | 0:00.00 | 5:15.31 | 0 | 23655
2 | 5:15.31 | 4:53.29 | 23656 | 45659
3 | 10:08.60 | 4:24.53 | 45660 | 65512
4 | 14:33.38 | 5:34.05 | 65513 | 90567
5 | 20:07.43 | 4:29.46 | 90568 | 110788
6 | 24:37.14 | 5:50.57 | 110789 | 137095
7 | 30:27.71 | 6:20.43 | 137096 | 165638
8 | 36:48.39 | 4:35.21 | 165639 | 186284
9 | 41:23.60 | 5:09.36 | 186285 | 209495
10 | 46:33.21 | 5:32.08 | 209496 | 234403

Range status and errors

Selected range

Filename D:\MUSIC\Majesty - Generation Steel.wav

Peak level 99.3 %
Extraction speed 7.5 X
Range quality 100.0 %
Test CRC 014AAB45
Copy CRC 014AAB45
Copy OK

No errors occurred


AccurateRip summary

Track 1 not present in database
Track 2 not present in database
Track 3 not present in database
Track 4 not present in database
Track 5 not present in database
Track 6 not present in database
Track 7 not present in database
Track 8 not present in database
Track 9 not present in database
Track 10 not present in database

None of the tracks are present in the AccurateRip database

End of status report

==== Log checksum 225CB997DC977054A0AEFEBB487D1392100A149E33D7DFF62684D32E3667FDE2 ====

foobar2000 1.2.6 / Dynamic Range Meter 1.1.1
log date: 2015-05-21 20:07:16

--------------------------------------------------------------------------------
Analyzed: Majesty / Generation Steel
--------------------------------------------------------------------------------

DR Peak RMS Duration Track
--------------------------------------------------------------------------------
DR7 -0.10 dB -7.72 dB 5:15 01-Hawks Will Fly
DR7 -0.10 dB -7.70 dB 4:53 02-Generation Steel
DR6 -0.10 dB -7.31 dB 4:25 03-Circle Of Rage
DR7 -0.09 dB -8.44 dB 5:34 04-Shout At The World
DR6 -0.11 dB -7.22 dB 4:30 05-Damnation Hero
DR6 -0.11 dB -7.85 dB 5:51 06-Children Of The Dark
DR6 -0.10 dB -8.73 dB 6:21 07-The Last Reward
DR6 -0.10 dB -7.46 dB 4:35 08-Knights Of The Empire
DR6 -0.05 dB -7.94 dB 5:09 09-Rulers Of The World
DR7 -0.07 dB -8.28 dB 5:32 10-War For Metal
--------------------------------------------------------------------------------

Number of tracks: 10
Official DR value: DR7

Samplerate: 44100 Hz
Channels: 2
Bits per sample: 16
Bitrate: 1007 kbps
Codec: FLAC
================================================================================
Download link:
Links are Interchangeable - No Password - Single Extraction

uploaded


Rapidgator.net

Site BBcode/HTML Code:
Dear visitor, you went to the site as unregistered user.
We recommend you Sign up or Login to website under your name.
Information
Would you like to leave your comment? Please Login to your account to leave comments. Don't have an account? You can create a free account now.

Tag Cloud

archive of news

^
 
free html hit counter