» » Carole King - City Streets (1989) [1991, Japanese Reissue]
uploaded.to



Information of news
23-05-2015, 08:50

Carole King - City Streets (1989) [1991, Japanese Reissue]

Category: Music

Carole King - City Streets (1989) [1991, Japanese Reissue]

Carole King - City Streets (1989) [1991, Japanese Reissue]
Pop/Rock, Singer/Songwriter | EAC Rip | FLAC, Tracks+CUE + LOG + Artwork-600dpi (JPEG) | 43:17 Min | 341,35 Mb
Label: EMI (Japan) | Released: 1991, December, 18

"
City Streets is an album by American singer-songwriter Carole King, released in 1989. It was the first album after 6-year hiatus from her recording career, co-produced by Rudy Guess who supported her as a backing guitarist in later years. The title track features a guitar solo by Eric Clapton. It was released as a single and became top-20 hit on the U.S. Billboard Adult Contemporary chart. Clapton also played the guitar on "Ain't That the Way." Another notable guest musician is Branford Marsalis, who played the saxophone on "Midnight Flyer."
"

Before making a comeback record, King fostered an acting career. "I Can't Stop Thinking About You" is a collaboration work with an actor Paul Hipp, who co-starred with her in the off-Broadway show A Minor Incident in 1988. "Midnight Flyer" and "Someone Who Believes in You" was co-written by her former songwriting partner and husband Gerry Goffin. The closing track of the album is her own rendition of the song originally written for Russell Hitchcock, a vocalist of Air Supply. His interpretation was initially featured on his eponymous solo debut album released in 1987, and he remade the song on Air Supply's The Earth Is... album four years later. It was also covered by Martha Wash in 1993 on her solo album.
Like her other efforts released in the 1980s, City Streets received mixed critical reviews and resulted in a commercial flop, only reaching #111 on the Billboard album chart. The album has been out of print worldwide since 1993, although reissue was once planned by American Beat Records in 2007.
source: wikipedia
Review by William Ruhlmann
Carole King's first album in six years also marks her return to Capitol Records, for whom she recorded from 1977 to 1980. She tries updating her sound, with aggressive guitars played on a couple of cuts by Eric Clapton, synthesizers, and drum machines, while singing lyrics that declare her renewed passion and hope. King was never one of pop's deep thinkers, which got her into trouble when she started going cosmic in the late '70s, but here she restricts herself to a kind of willed optimism and determination, and she sings as though she means it. City Streets is thus King's most engaging record since her early '70s hits, and even if it's too late for her to reclaim her place in pop music, that's encouraging.
"

Release of the album: 1982 [LP Capitol Records, Cat.# C1-90885 , USA]
Release of this CD: 1991, December, 18 [CD EMI (Japan), Cat.# TOCP-6939]


Art Direction - Tommy Steele (2)
Bass - Wayne Pedzwater (tracks: 1, 2, 5 to 10)
Design - Jeffery Fey
Drums - Steve Ferrone (tracks: 1, 3, 6, 7, 9)
Engineer [2nd] - Ue Nastasy*
Executive-Producer - Tom Whalley
Guitar - Rudy Guess
Mastered By - Greg Calbi
Percussion - Sammy Figueroa (tracks: 3, 6, 7, 9, 10)
Photography By - Caroline Greyshock
Producer - Carole King, Rudy Guess
Recorded By [Digitally], Mixed By - James Farber
Vocals, Synthesizer - Carole King
Written-By - Carole King (tracks: 1, 3, 4, 7)



Tracklist:

01. City Streets (05:01)
(Carole King)
02. Sweet Life (04:35)
(Carole King, Rudy Guess)
03. Down To The Darkness (04:19)
(Carole King)
04. Lovelight (04:29)
(Carole King)
05. I Can't Stop Thinking About You (05:03)
(Carole King, Paul Hipp)
06. Legacy (05:05)
(Carole King, Guess)
07. Ain't That The Way (03:10)
(Carole King)
08. Midnight Flyer (04:28)
(Carole King, Gerry Goffin)
09. Homeless Heart (04:07)
(Carole King, John Bettis)
10. Someone Who Believes In You (03:00)
(Carole King, Gerry Goffin)

Exact Audio Copy V1.0 beta 3 from 29. August 2011

EAC extraction logfile from 12. May 2015, 22:10

Carole King / City Streets

Used drive : HL-DT-STDVDRAM GH24NS90 Adapter: 1 ID: 0

Read mode : Secure
Utilize accurate stream : Yes
Defeat audio cache : No
Make use of C2 pointers : Yes

Read offset correction : 6
Overread into Lead-In and Lead-Out : No
Fill up missing offset samples with silence : Yes
Delete leading and trailing silent blocks : No
Null samples used in CRC calculations : Yes
Used interface : Native Win32 interface for Win NT & 2000
Gap handling : Appended to previous track

Used output format : User Defined Encoder
Selected bitrate : 1024 kBit/s
Quality : High
Add ID3 tag : No
Command line compressor : C:\Program Files (x86)\FLAC\metaflac.exe
Additional command line options : -8

TOC of the extracted CD

Track | Start | Length | Start sector | End sector
---------------------------------------------------------
1 | 0:00.00 | 5:01.15 | 0 | 22589
2 | 5:01.15 | 4:35.05 | 22590 | 43219
3 | 9:36.20 | 4:19.17 | 43220 | 62661
4 | 13:55.37 | 4:29.20 | 62662 | 82856
5 | 18:24.57 | 5:02.70 | 82857 | 105576
6 | 23:27.52 | 5:05.23 | 105577 | 128474
7 | 28:33.00 | 3:10.37 | 128475 | 142761
8 | 31:43.37 | 4:27.70 | 142762 | 162856
9 | 36:11.32 | 4:06.43 | 162857 | 181349
10 | 40:18.00 | 2:59.42 | 181350 | 194816

Track 1

Filename C:\Exact Audio Copy\Carole King\City Streets\01 City Streets.wav

Pre-gap length 0:00:02.00

Peak level 93.6 %
Extraction speed 3.7 X
Track quality 100.0 %
Test CRC F28A9AA3
Copy CRC F28A9AA3
Accurately ripped (confidence 1) [F72B79FD] (AR v2)
Copy OK

Track 2

Filename C:\Exact Audio Copy\Carole King\City Streets\02 Sweet Life.wav

Peak level 100.0 %
Extraction speed 4.3 X
Track quality 100.0 %
Test CRC 8EE030C4
Copy CRC 8EE030C4
Accurately ripped (confidence 1) [3F0B802B] (AR v2)
Copy OK

Track 3

Filename C:\Exact Audio Copy\Carole King\City Streets\03 Down To The Darkness.wav

Peak level 98.4 %
Extraction speed 4.6 X
Track quality 100.0 %
Test CRC 105EE071
Copy CRC 105EE071
Accurately ripped (confidence 1) [9C16C755] (AR v2)
Copy OK

Track 4

Filename C:\Exact Audio Copy\Carole King\City Streets\04 Lovelight.wav

Pre-gap length 0:00:00.50

Peak level 98.4 %
Extraction speed 4.9 X
Track quality 99.9 %
Test CRC 8DF261BE
Copy CRC 8DF261BE
Accurately ripped (confidence 1) [D0819854] (AR v2)
Copy OK

Track 5

Filename C:\Exact Audio Copy\Carole King\City Streets\05 I Can't Stop Thinking About You.wav

Peak level 75.3 %
Extraction speed 5.4 X
Track quality 100.0 %
Test CRC F8D6C49F
Copy CRC F8D6C49F
Accurately ripped (confidence 1) [D985E272] (AR v2)
Copy OK

Track 6

Filename C:\Exact Audio Copy\Carole King\City Streets\06 Legacy.wav

Pre-gap length 0:00:01.00

Peak level 98.4 %
Extraction speed 5.7 X
Track quality 99.9 %
Test CRC A46876F2
Copy CRC A46876F2
Accurately ripped (confidence 1) [4F334F94] (AR v2)
Copy OK

Track 7

Filename C:\Exact Audio Copy\Carole King\City Streets\07 Ain't That The Way.wav

Peak level 98.4 %
Extraction speed 5.9 X
Track quality 100.0 %
Test CRC EB3BDBF2
Copy CRC EB3BDBF2
Accurately ripped (confidence 1) [AB894C4F] (AR v2)
Copy OK

Track 8

Filename C:\Exact Audio Copy\Carole King\City Streets\08 Midnight Flyer.wav

Peak level 98.4 %
Extraction speed 6.2 X
Track quality 100.0 %
Test CRC 72EF4B99
Copy CRC 72EF4B99
Accurately ripped (confidence 1) [F9EE4D21] (AR v2)
Copy OK

Track 9

Filename C:\Exact Audio Copy\Carole King\City Streets\09 Homeless Heart.wav

Peak level 98.4 %
Extraction speed 6.4 X
Track quality 100.0 %
Test CRC 998CD750
Copy CRC 998CD750
Accurately ripped (confidence 1) [03EB1069] (AR v2)
Copy OK

Track 10

Filename C:\Exact Audio Copy\Carole King\City Streets\10 Someone Who Believes In You.wav

Peak level 69.5 %
Extraction speed 6.6 X
Track quality 100.0 %
Test CRC 4874D1A3
Copy CRC 4874D1A3
Accurately ripped (confidence 1) [CC21829F] (AR v2)
Copy OK

All tracks accurately ripped

No errors occurred

End of status report

==== Log checksum 1AC1F4027AC9B64EEC463F76C9147F8D708E32F9D087AAF4BB73CF6F9114A27A ====

foobar2000 1.3.7 / Dynamic Range Meter 1.1.1
log date: 2015-05-22 23:33:04

--------------------------------------------------------------------------------
Analyzed: Carole King / City Streets
--------------------------------------------------------------------------------

DR Peak RMS Duration Track
--------------------------------------------------------------------------------
DR15 -0.57 dB -17.88 dB 5:01 01 City Streets-01 City Streets
DR16 0.00 dB -18.32 dB 4:35 02 Sweet Life-02 Sweet Life
DR17 -0.14 dB -18.38 dB 4:19 03 Down To The Darkness-03 Down To The Darkness
DR14 -0.14 dB -17.59 dB 4:29 04 Lovelight-04 Lovelight
DR14 -2.45 dB -22.59 dB 5:03 05 I Can't Stop Thinking About You-05 I Can't Stop Thinking About You
DR16 -0.14 dB -18.03 dB 5:05 06 Legacy-06 Legacy
DR16 -0.14 dB -18.23 dB 3:10 07 Ain't That The Way-07 Ain't That The Way
DR15 -0.14 dB -16.77 dB 4:28 08 Midnight Flyer-08 Midnight Flyer
DR15 -0.14 dB -17.84 dB 4:07 09 Homeless Heart-09 Homeless Heart
DR13 -3.15 dB -20.23 dB 3:00 10 Someone Who Believes In You-10 Someone Who Believes In You
--------------------------------------------------------------------------------

Number of tracks: 10
Official DR value: DR15

Samplerate: 44100 Hz
Channels: 2
Bits per sample: 16
Bitrate: 710 kbps
Codec: FLAC
================================================================================


password: BlondStyle
Download link:



Links are Interchangeable - No Password - Single Extraction

uploaded


Rapidgator.net

Site BBcode/HTML Code:
Dear visitor, you went to the site as unregistered user.
We recommend you Sign up or Login to website under your name.
Information
Would you like to leave your comment? Please Login to your account to leave comments. Don't have an account? You can create a free account now.

Tag Cloud

archive of news

^
 
free html hit counter