» » Iron Maiden - En Vivo! (2012) [BDRip 1080p]
uploaded.to



Information of news
26-05-2015, 04:16

Iron Maiden - En Vivo! (2012) [BDRip 1080p]

Category: Music

Iron Maiden - En Vivo! (2012) [BDRip 1080p]

Iron Maiden - En Vivo! (2012)
BDRip 1080p | MKV | H.264, 1920*1080p, 16,4 Mbps, 23.976 fps | 15.17 GB
Audio: DTS, 1510 kpbs, 48 kHz, 6 ch; AC3, 448 kpbs, 48 kHz, 2 ch
Genre: Heavy Metal | Length: 01:56:00 | Nitroflare/Uploadable

Frontier World Tour, and captures a magnificent performance by the band, ardently embraced by the legendary Latino passion and energy of their Chilean fans. With spectacular stage backdrops, dynamic musicianship and a literally jaw-dropping appearance by Eddie, this live show encapsulates to perfection the heart and soul of Iron Maiden 2011.
Bass player and founding member Steve Harris comments, For The Final Frontier Tour, it was really important to me that we filmed in South America as we re always so overwhelmed by the fans reaction when we go to that part of the world and I wanted to reflect that in the filming. After much consideration, we chose the Santiago show as we felt it was one of our best performances of the entire tour and to play at the prestigious Estadio Nacional was a landmark moment for us. For reasons known to our fans, it took a long time before we got to play our first show in Chile, and once we did get to play a show, the response was so phenomenal we just had to keep coming back, and it s got better and better each time!

Iron Maiden - En Vivo! (2012) [BDRip 1080p]

Iron Maiden - En Vivo! (2012) [BDRip 1080p]

Iron Maiden - En Vivo! (2012) [BDRip 1080p]


Tracklist
01. Satellite 15
02. The Final Frontier
03. El Dorado
04. 2 Minutes To Midnight
05. The Talisman
06. Coming Home
07. Dance Of Death
08. The Trooper
09. The Wicker Man
10. Blood Brothers
11. When The Wild Wind Blows
12. The Evil That Men Do
13. Fear Of The Dark
14. Iron Maiden
15. The Number Of The Beast
16. Hallowed Be Thy Name
17. Running Free

General
Unique ID : 224878939397531998303656532975380426912 (0xA92E1BBB2C25B4E5A2D02D25BAFD70A0)
Complete name : C:\Users\ggu\Desktop\ggu\Iron Maiden - En Vivo!.mkv
Format : Matroska
Format version : Version 2
File size : 15.2 GiB
Duration : 1h 55mn
Overall bit rate : 18.7 Mbps
Encoded date : UTC 2012-03-31 17:00:13
Writing application : mkvmerge v5.2.1 ('A Far Off Place') built on Jan 2 2012 23:21:10
Writing library : libebml v1.2.3 + libmatroska v1.3.0

Video
ID : 1
Format : AVC
Format/Info : Advanced Video Codec
Format profile : [email protected]
Format settings, CABAC : Yes
Format settings, ReFrames : 4 frames
Codec ID : V_MPEG4/ISO/AVC
Duration : 1h 55mn
Bit rate : 16.4 Mbps
Width : 1 920 pixels
Height : 1 080 pixels
Display aspect ratio : 16:9
Frame rate mode : Constant
Frame rate : 23.976 fps
Color space : YUV
Chroma subsampling : 4:2:0
Bit depth : 8 bits
Scan type : Progressive
Bits/(Pixel*Frame) : 0.330
Stream size : 13.3 GiB (88%)
Writing library : x264 core 120 r2164 da19765
Encoding settings : cabac=1 / ref=4 / deblock=1:-1:-1 / analyse=0x3:0x113 / me=umh / subme=9 / psy=1 / psy_rd=1.00:0.00 / mixed_ref=1 / me_range=16 / chroma_me=1 / trellis=2 / 8x8dct=1 / cqm=0 / deadzone=21,11 / fast_pskip=1 / chroma_qp_offset=-2 / threads=6 / sliced_threads=0 / nr=0 / decimate=1 / interlaced=0 / bluray_compat=0 / constrained_intra=0 / bframes=4 / b_pyramid=2 / b_adapt=1 / b_bias=0 / direct=1 / weightb=1 / open_gop=0 / weightp=2 / keyint=250 / keyint_min=23 / scenecut=40 / intra_refresh=0 / rc=crf / mbtree=0 / crf=19.5 / qcomp=0.60 / qpmin=0 / qpmax=69 / qpstep=4 / ip_ratio=1.40 / pb_ratio=1.30 / aq=1:1.00
Language : English
Default : Yes
Forced : No

Audio #1
ID : 2
Format : AC-3
Format/Info : Audio Coding 3
Mode extension : CM (complete main)
Format settings, Endianness : Big
Codec ID : A_AC3
Duration : 1h 55mn
Bit rate mode : Constant
Bit rate : 448 Kbps
Channel(s) : 2 channels
Channel positions : Front: L R
Sampling rate : 48.0 KHz
Bit depth : 16 bits
Compression mode : Lossy
Stream size : 372 MiB (2%)
Title : AC3, 16 bit, 48 kHz, 448 kbps, 2 ch
Language : English
Default : Yes
Forced : No

Audio #2
ID : 3
Format : DTS
Format/Info : Digital Theater Systems
Mode : 16
Format settings, Endianness : Big
Codec ID : A_DTS
Duration : 1h 55mn
Bit rate mode : Constant
Bit rate : 1 509 Kbps
Channel(s) : 6 channels
Channel positions : Front: L C R, Side: L R, LFE
Sampling rate : 48.0 KHz
Bit depth : 16 bits
Compression mode : Lossy
Stream size : 1.22 GiB (8%)
Title : DTS, 16 bit, 48 kHz, 1510 kbps, 6 ch
Language : English
Default : No
Forced : No

Menu
00:00:00.000 : en:01.Satellite 15
00:04:42.742 : en:02.The Final Frontier
00:08:52.158 : en:03.El Dorado
00:14:45.386 : en:04.2 Minutes To Midnight
00:20:32.942 : en:05.The Talisman
00:29:18.842 : en:06.Coming Home
00:36:28.229 : en:07.Dance Of Death
00:45:26.016 : en:08.The Trooper
00:49:24.338 : en:09.The Wicker Man
00:54:01.281 : en:10.Blood Brothers
01:04:45.300 : en:11.When The Wild Wind Blows
01:15:16.764 : en:12.The Evil That Men Do
01:19:38.525 : en:13.Fear Of The Dark
01:27:12.979 : en:14.Iron Maiden
01:33:07.333 : en:15.The Number Of The Beast
01:38:05.840 : en:16.Hallowed Be Thy Name
01:45:35.331 : en:17.Running Free
01:53:22.339 : en:18.Credits
Download link:
Ryushare.com:
7756o.Iron.Maiden..En.Vivo.2012.BDRip.1080p.part01.rar
7756o.Iron.Maiden..En.Vivo.2012.BDRip.1080p.part02.rar
7756o.Iron.Maiden..En.Vivo.2012.BDRip.1080p.part03.rar
7756o.Iron.Maiden..En.Vivo.2012.BDRip.1080p.part04.rar
7756o.Iron.Maiden..En.Vivo.2012.BDRip.1080p.part05.rar
7756o.Iron.Maiden..En.Vivo.2012.BDRip.1080p.part06.rar
7756o.Iron.Maiden..En.Vivo.2012.BDRip.1080p.part07.rar
7756o.Iron.Maiden..En.Vivo.2012.BDRip.1080p.part08.rar
7756o.Iron.Maiden..En.Vivo.2012.BDRip.1080p.part09.rar
7756o.Iron.Maiden..En.Vivo.2012.BDRip.1080p.part10.rar
7756o.Iron.Maiden..En.Vivo.2012.BDRip.1080p.part11.rar
7756o.Iron.Maiden..En.Vivo.2012.BDRip.1080p.part12.rar
7756o.Iron.Maiden..En.Vivo.2012.BDRip.1080p.part13.rar
7756o.Iron.Maiden..En.Vivo.2012.BDRip.1080p.part14.rar
7756o.Iron.Maiden..En.Vivo.2012.BDRip.1080p.part15.rar
7756o.Iron.Maiden..En.Vivo.2012.BDRip.1080p.part16.rar
7756o.Iron.Maiden..En.Vivo.2012.BDRip.1080p.part17.rar

Nitroflare:
7756o.Iron.Maiden..En.Vivo.2012.BDRip.1080p.part01.rar
7756o.Iron.Maiden..En.Vivo.2012.BDRip.1080p.part02.rar
7756o.Iron.Maiden..En.Vivo.2012.BDRip.1080p.part03.rar
7756o.Iron.Maiden..En.Vivo.2012.BDRip.1080p.part04.rar
7756o.Iron.Maiden..En.Vivo.2012.BDRip.1080p.part05.rar
7756o.Iron.Maiden..En.Vivo.2012.BDRip.1080p.part06.rar
7756o.Iron.Maiden..En.Vivo.2012.BDRip.1080p.part07.rar
7756o.Iron.Maiden..En.Vivo.2012.BDRip.1080p.part08.rar
7756o.Iron.Maiden..En.Vivo.2012.BDRip.1080p.part09.rar
7756o.Iron.Maiden..En.Vivo.2012.BDRip.1080p.part10.rar
7756o.Iron.Maiden..En.Vivo.2012.BDRip.1080p.part11.rar
7756o.Iron.Maiden..En.Vivo.2012.BDRip.1080p.part12.rar
7756o.Iron.Maiden..En.Vivo.2012.BDRip.1080p.part13.rar
7756o.Iron.Maiden..En.Vivo.2012.BDRip.1080p.part14.rar
7756o.Iron.Maiden..En.Vivo.2012.BDRip.1080p.part15.rar
7756o.Iron.Maiden..En.Vivo.2012.BDRip.1080p.part16.rar
7756o.Iron.Maiden..En.Vivo.2012.BDRip.1080p.part17.rar

Uploadable.cht:
7756o.Iron.Maiden..En.Vivo.2012.BDRip.1080p.part01.rar
7756o.Iron.Maiden..En.Vivo.2012.BDRip.1080p.part02.rar
7756o.Iron.Maiden..En.Vivo.2012.BDRip.1080p.part03.rar
7756o.Iron.Maiden..En.Vivo.2012.BDRip.1080p.part04.rar
7756o.Iron.Maiden..En.Vivo.2012.BDRip.1080p.part05.rar
7756o.Iron.Maiden..En.Vivo.2012.BDRip.1080p.part06.rar
7756o.Iron.Maiden..En.Vivo.2012.BDRip.1080p.part07.rar
7756o.Iron.Maiden..En.Vivo.2012.BDRip.1080p.part08.rar
7756o.Iron.Maiden..En.Vivo.2012.BDRip.1080p.part09.rar
7756o.Iron.Maiden..En.Vivo.2012.BDRip.1080p.part10.rar
7756o.Iron.Maiden..En.Vivo.2012.BDRip.1080p.part11.rar
7756o.Iron.Maiden..En.Vivo.2012.BDRip.1080p.part12.rar
7756o.Iron.Maiden..En.Vivo.2012.BDRip.1080p.part13.rar
7756o.Iron.Maiden..En.Vivo.2012.BDRip.1080p.part14.rar
7756o.Iron.Maiden..En.Vivo.2012.BDRip.1080p.part15.rar
7756o.Iron.Maiden..En.Vivo.2012.BDRip.1080p.part16.rar
7756o.Iron.Maiden..En.Vivo.2012.BDRip.1080p.part17.rar
Links are Interchangeable - No Password - Single Extraction

uploaded


Rapidgator.net

Site BBcode/HTML Code:
Dear visitor, you went to the site as unregistered user.
We recommend you Sign up or Login to website under your name.
Information
Would you like to leave your comment? Please Login to your account to leave comments. Don't have an account? You can create a free account now.

Tag Cloud

archive of news

^
 
free html hit counter