» » » Ken Wilber - Integral Operating System 1.0

Information of news
31-05-2015, 19:59

Ken Wilber - Integral Operating System 1.0

Category: Tutorials / Other

Ken Wilber - Integral Operating System 1.0

Ken Wilber - Integral Operating System 1.0
DVDRip | English | AVI/DivX 25.000 fps 768 Kbps | 320x240 | MP3 192 Kbps 44.1 khz | 1h 14mn | 518 MB
Genre: Video Training, Psychology

Are you ready to ramp up the performance of your human hardware? If so, then welcome to the launch of Version 1.0 of Ken Wilber's The Integral Operating System. No, it's not computer software. It's a course that crystallizes Ken's lifelong investigation into the truths of Eastern and Western thought into a cutting-edge tool for sparking a revolution of your mind and spirit.
Ken Wilber has spent over three decades creating an all-embracing vision that incorporates the best elements from all of humanity's spiritual and scientific traditions into a model that reveals even deeper levels of truth-the Integral Map. Now, this profoundly versatile tool has been formatted into a multimodal "platform for the soul"-one that you can self-install to accelerate the growth of your spiritual evolution, intellect, relationships with others, and even your physical health.
As one of the most influential figures of human spiritual development, Ken Wilber has been called "the Einstein of consciousness." Here is an unprecedented chance for you to "download" this remarkable thinker's teachings as he illuminates the intricacies of The Integral Operating System.
SYSTEM REQUIREMENTS: The Integral Operating System is guaranteed to enhance the performance of any human mind, from interested novices to the most advanced spiritual seekers.

Complete name : Ken Wilber - Integral Operating System 1.0 - Video DVD.avi
Format : AVI
Format/Info : Audio Video Interleave
File size : 518 MiB
Duration : 1h 14mn
Overall bit rate : 970 Kbps

ID : 0
Format : MPEG-4 Visual
Format settings, BVOP : No
Format settings, QPel : No
Format settings, GMC : No warppoints
Format settings, Matrix : Default (H.263)
Codec ID : DX50
Codec ID/Hint : DivX 5
Duration : 1h 14mn
Bit rate : 768 Kbps
Width : 320 pixels
Height : 240 pixels
Display aspect ratio : 4:3
Frame rate : 25.000 fps
Color space : YUV
Chroma subsampling : 4:2:0
Bit depth : 8 bits
Scan type : Progressive
Compression mode : Lossy
Bits/(Pixel*Frame) : 0.400
Stream size : 410 MiB (79%)
Writing library : DivX 5.1.0 (UTC 2003-09-02)

ID : 1
Format : MPEG Audio
Format version : Version 1
Format profile : Layer 3
Codec ID : 55
Codec ID/Hint : MP3
Duration : 1h 14mn
Bit rate mode : Constant
Bit rate : 192 Kbps
Channel(s) : 2 channels
Sampling rate : 44.1 KHz
Compression mode : Lossy
Delay relative to video : 26ms
Stream size : 103 MiB (20%)
Alignment : Split accross interleaves
Interleave, duration : 40 ms (1.00 video frame)
Title : Audio Stream
Writing library : LAME3.92


Ken Wilber - Integral Operating System 1.0

Ken Wilber - Integral Operating System 1.0

Ken Wilber - Integral Operating System 1.0

Download link:
Links are Interchangeable - No Password - Single Extraction



Site BBcode/HTML Code:
Dear visitor, you went to the site as unregistered user.
We recommend you Sign up or Login to website under your name.
Would you like to leave your comment? Please Login to your account to leave comments. Don't have an account? You can create a free account now.

Tag Cloud

archive of news

free html hit counter