» » A Massage Therapist's Guide to Lower Back & Pelvic Pain
uploaded.to



Information of news
  • Author: kityvn
  • Date: 4-06-2015, 09:35
4-06-2015, 09:35

A Massage Therapist's Guide to Lower Back & Pelvic Pain

Category: Tutorials



"A MASSAGE THERAPIST'S GUIDE TO LOWER BACK AND PELVIC PAIN describes in detail the background to the evolution of "non-specific" backache as well as the assessment and treatment methods ideal for use in combination with massage therapy, deriving from physical therapy, osteopathic, and chiropractic sources."


General
Complete name : A massage therapist's guide to lower back and pelvic pain, by Leon Chaitow\Chaitow\images\videos\C001.mov
Format
: MPEG-4
Format profile : QuickTime
Codec ID
: qt
File size
: 20.0 MiB
Duration
: 44s 160ms
Overall bit rate : 3 794 Kbps
Encoded date : UTC 2006-04-05 10:44:02
Tagged date
: UTC 2006-04-05 10:44:58
Writing library : Apple QuickTime

Video
ID : 2
Format
: Sorenson 3
Codec ID
: SVQ3
Codec ID/Info : Sorenson Media Video 3 (Apple QuickTime 5)
Duration
: 44s 160ms
Bit rate
: 3 589 Kbps
Width
: 500 pixels
Height
: 400 pixels
Display aspect ratio : 5:4
Frame rate mode : Constant
Frame rate
: 25.000 fps
Bits/(Pixel*Frame)

: 0.718
Stream size
: 18.9 MiB (95%)
Language
: English
Encoded date : UTC 2006-04-05 10:44:02
Tagged date
: UTC 2006-04-05 10:44:58

Audio
ID : 1
Format
: ADPCM
Format settings, Firm : IMA
Codec ID
: ima4
Duration
: 44s 160ms
Source duration : 44s 161ms
Bit rate mode : Constant
Bit rate
: 384 Kbps
Channel(s)
: 1 channel
Channel positions: Front: C
Sampling rate : 48.0 KHz
Bit depth
: 16 bits
Stream size
: 2.02 MiB (10%)
Source stream size

: 1.07 MiB (5%)
Language
: English
Encoded date : UTC 2006-04-05 10:44:02
Tagged date
: UTC 2006-04-05 10:44:58


Screenshots

A Massage Therapist's Guide to Lower Back & Pelvic Pain

A Massage Therapist's Guide to Lower Back & Pelvic Pain

A Massage Therapist's Guide to Lower Back & Pelvic Pain

A Massage Therapist's Guide to Lower Back & Pelvic Pain




I recommends Buy premimum account for High speed+parallel downloads!

rapidgator


Nitroflare


uploaded


Rapidgator.net

Site BBcode/HTML Code:
Dear visitor, you went to the site as unregistered user.
We recommend you Sign up or Login to website under your name.
Information
Would you like to leave your comment? Please Login to your account to leave comments. Don't have an account? You can create a free account now.

Tag Cloud

archive of news

^
 
free html hit counter