» » Debademba - Souleymane (2013)
uploaded.to



Information of news
4-06-2015, 13:43

Debademba - Souleymane (2013)

Category: Music

Debademba - Souleymane (2013)

Debademba - Souleymane (2013)
EAC | FLAC | Tracks (Cue&Log) ~ 286 Mb (incl 5%) | Mp3 (CBR320) ~ 122 Mb (incl 5%) | Scans included
Genre: West African, World Fusion, African Jazz | Label: World Village | # WVF 479082 | Time: 00:45:05

"Debademba is a group formed from the magical encounter of two fellow musicians: guitarist and inventive beat master Abdoulaye Traore from Burkina Faso and Malian singer Mohamed Diaby, a charismatic griot. These colorful characters are, like the other members of the group, Parisian Africans who are very prominent on the capital's cosmopolitan live music scene. The kind of music they make is modern and explosive, drawing from afrobeat, highlife and mbalax styles, with hints of Mandinka music mixed in, all combined with strong blues elements and the occasional nod to rock. Souleymane is a powerful manifesto and an invitation to celebrate."

"Debademba are basically two guys - the astonishing big voice in the Malian style with a touch of rock diva from Mohamed Diaby, and guitar, mandolin and banjo from Abdoulaye Traore.

They are the perfect musical partners. The band are fleshed out by drums, percussion, a bit of piano, cello, violin, brass, flute and backing singers on some tracks. The music is quite diverse, a bit Malian, a bit funk, blues, jazz, Arabic, pop. It's very accessible and catchy.

And my god, that voice! It's ravishing. Close to Salif Keita or Sekouba Bambino but also very distinctive, with a rock or jazz edge. Once heard, you'll want more so check out their first album, Debademba, which also features the then unknown singer Fatou Diawara. Diaby also appears on Seckou Keita's wonderful kora album Miro.

Review by 'One more opinion', Amazon.co.uk
"


Tracklist:

01. Nusso dia (03:19)
02. Touma (04:23)
03. Souleymane (03:19)
04. Gnouma (03:09)
05. Saiwa (04:04)
06. Dema (04:30)
07. Dianamo (05:25)
08. Doussou (03:37)
09. Moko (05:11)
10. Djiki (03:47)
11. Pleine lune (instrumental) (04:16)


Exact Audio Copy V1.0 beta 3 from 29. August 2011

EAC extraction logfile from 6. May 2014, 14:54

Debademba / Souleymane

Used drive : SONY DVD RW DW-U18A Adapter: 0 ID: 0

Read mode : Secure
Utilize accurate stream : Yes
Defeat audio cache : Yes
Make use of C2 pointers : No

Read offset correction : 12
Overread into Lead-In and Lead-Out : No
Fill up missing offset samples with silence : Yes
Delete leading and trailing silent blocks : No
Null samples used in CRC calculations : Yes
Used interface : Native Win32 interface for Win NT & 2000
Gap handling : Appended to previous track

Used output format : User Defined Encoder
Selected bitrate : 1024 kBit/s
Quality : High
Add ID3 tag : No
Command line compressor : C:\Program Files\Exact Audio Copy\Flac\flac.exe
Additional command line options : -8 -V -T "ARTIST=%artist%" -T "TITLE=%title%" -T "ALBUM=%albumtitle%" -T "DATE=%year%" -T "TRACKNUMBER=%tracknr%" -T "GENRE=%genre%" -T "PERFORMER=%albuminterpret%" -T "COMPOSER=%composer%" %haslyrics%--tag-from-file=LYRICS="%lyricsfile%"%haslyrics% -T "ALBUMARTIST=%albumartist%" -T "ALBUM ARTIST=%albumartist%" -T "DISCNUMBER=%cdnumber%" -T "TOTALDISCS=%totalcds%" -T "TOTALTRACKS=%numtracks%" -T "COMMENT=EAC V1.0 beta 2, Secure Mode, Test & Copy, AccurateRip, FLAC -8" %source% -o %dest%

TOC of the extracted CD

Track | Start | Length | Start sector | End sector
---------------------------------------------------------
1 | 0:00.00 | 3:19.64 | 0 | 14988
2 | 3:19.64 | 4:23.20 | 14989 | 34733
3 | 7:43.09 | 3:19.37 | 34734 | 49695
4 | 11:02.46 | 3:09.60 | 49696 | 63930
5 | 14:12.31 | 4:04.55 | 63931 | 82285
6 | 18:17.11 | 4:30.68 | 82286 | 102603
7 | 22:48.04 | 5:25.22 | 102604 | 127000
8 | 28:13.26 | 3:37.01 | 127001 | 143276
9 | 31:50.27 | 5:11.26 | 143277 | 166627
10 | 37:01.53 | 3:47.11 | 166628 | 183663
11 | 40:48.64 | 4:16.57 | 183664 | 202920

Track 1

Filename C:\pastacube\Debademba - Souleymane (2013) [FLAC]\01 - Nusso dia.wav

Pre-gap length 0:00:02.00

Peak level 99.8 %
Extraction speed 4.8 X
Track quality 99.9 %
Test CRC 984F477D
Copy CRC 984F477D
Accurately ripped (confidence 3) [1BE873DB] (AR v2)
Copy OK

Track 2

Filename C:\pastacube\Debademba - Souleymane (2013) [FLAC]\02 - Touma.wav

Pre-gap length 0:00:02.89

Peak level 99.8 %
Extraction speed 5.3 X
Track quality 99.9 %
Test CRC 9598BACB
Copy CRC 9598BACB
Accurately ripped (confidence 3) [F6880CC1] (AR v2)
Copy OK

Track 3

Filename C:\pastacube\Debademba - Souleymane (2013) [FLAC]\03 - Souleymane.wav

Pre-gap length 0:00:00.90

Peak level 99.8 %
Extraction speed 6.1 X
Track quality 100.0 %
Test CRC 97170FB6
Copy CRC 97170FB6
Accurately ripped (confidence 3) [111C8E62] (AR v2)
Copy OK

Track 4

Filename C:\pastacube\Debademba - Souleymane (2013) [FLAC]\04 - Gnouma.wav

Pre-gap length 0:00:01.89

Peak level 99.8 %
Extraction speed 6.2 X
Track quality 100.0 %
Test CRC 0CE97F3C
Copy CRC 0CE97F3C
Accurately ripped (confidence 3) [2F5C678E] (AR v2)
Copy OK

Track 5

Filename C:\pastacube\Debademba - Souleymane (2013) [FLAC]\05 - Saiwa.wav

Pre-gap length 0:00:02.89

Peak level 99.8 %
Extraction speed 6.5 X
Track quality 100.0 %
Test CRC 5B2E3A64
Copy CRC 5B2E3A64
Accurately ripped (confidence 3) [4ACF0BAA] (AR v2)
Copy OK

Track 6

Filename C:\pastacube\Debademba - Souleymane (2013) [FLAC]\06 - Dema.wav

Pre-gap length 0:00:02.89

Peak level 99.8 %
Extraction speed 5.8 X
Track quality 99.9 %
Test CRC 3ACC0A2F
Copy CRC 3ACC0A2F
Accurately ripped (confidence 3) [E0EB4A21] (AR v2)
Copy OK

Track 7

Filename C:\pastacube\Debademba - Souleymane (2013) [FLAC]\07 - Dianamo.wav

Peak level 99.8 %
Extraction speed 6.7 X
Track quality 100.0 %
Test CRC 6E10555F
Copy CRC 6E10555F
Accurately ripped (confidence 3) [DEC19F00] (AR v2)
Copy OK

Track 8

Filename C:\pastacube\Debademba - Souleymane (2013) [FLAC]\08 - Doussou.wav

Pre-gap length 0:00:01.90

Peak level 99.8 %
Extraction speed 6.4 X
Track quality 100.0 %
Test CRC 6EBCBB80
Copy CRC 6EBCBB80
Accurately ripped (confidence 3) [29960852] (AR v2)
Copy OK

Track 9

Filename C:\pastacube\Debademba - Souleymane (2013) [FLAC]\09 - Moko.wav

Pre-gap length 0:00:02.89

Peak level 99.8 %
Extraction speed 6.7 X
Track quality 100.0 %
Test CRC 3C2B9824
Copy CRC 3C2B9824
Accurately ripped (confidence 3) [C1231436] (AR v2)
Copy OK

Track 10

Filename C:\pastacube\Debademba - Souleymane (2013) [FLAC]\10 - Djiki.wav

Pre-gap length 0:00:01.90

Peak level 99.8 %
Extraction speed 6.3 X
Track quality 100.0 %
Test CRC 583BC7F4
Copy CRC 583BC7F4
Accurately ripped (confidence 3) [2E50B86F] (AR v2)
Copy OK

Track 11

Filename C:\pastacube\Debademba - Souleymane (2013) [FLAC]\11 - Pleine lune (instrumental).wav

Peak level 99.8 %
Extraction speed 6.3 X
Track quality 100.0 %
Test CRC 5A52800D
Copy CRC 5A52800D
Accurately ripped (confidence 3) [C5909A3C] (AR v2)
Copy OK

All tracks accurately ripped

No errors occurred

End of status report

==== Log checksum 588329790DDEBF9C84752A4483FF80EFD38B1AF93A4A492C15329D411AD248E4 ====

foobar2000 1.3.8 / Dynamic Range Meter 1.1.1
log date: 2015-06-04 00:47:50

--------------------------------------------------------------------------------
Analyzed: Debademba / Souleymane
--------------------------------------------------------------------------------

DR Peak RMS Duration Track
--------------------------------------------------------------------------------
DR7 -0.01 dB -8.35 dB 3:20 01-Nusso dia
DR7 -0.01 dB -8.88 dB 4:23 02-Touma
DR9 -0.01 dB -10.91 dB 3:19 03-Souleymane
DR8 -0.01 dB -9.47 dB 3:10 04-Gnouma
DR7 -0.01 dB -8.57 dB 4:05 05-Saiwa
DR7 -0.01 dB -8.60 dB 4:31 06-Dema
DR10 -0.01 dB -11.75 dB 5:25 07-Dianamo
DR7 -0.01 dB -8.39 dB 3:37 08-Doussou
DR9 -0.01 dB -10.92 dB 5:11 09-Moko
DR9 -0.01 dB -10.74 dB 3:47 10-Djiki
DR11 -0.01 dB -13.34 dB 4:17 11-Pleine lune (instrumental)
--------------------------------------------------------------------------------

Number of tracks: 11
Official DR value: DR8

Samplerate: 44100 Hz
Channels: 2
Bits per sample: 16
Bitrate: 738 kbps
Codec: FLAC
================================================================================
Password: designol
Download link:



Links are Interchangeable - No Password - Single Extraction

uploaded


Rapidgator.net

Site BBcode/HTML Code:
Dear visitor, you went to the site as unregistered user.
We recommend you Sign up or Login to website under your name.
Information
Would you like to leave your comment? Please Login to your account to leave comments. Don't have an account? You can create a free account now.

Tag Cloud

archive of news

^
 
free html hit counter