» » Sviatoslav Richter - Beethoven: Piano Sonatas Nos. 8 & 23; 8 Bagatelles; Choral Fantasy, Op.80 (2003)
uploaded.to



Information of news
4-06-2015, 19:13

Sviatoslav Richter - Beethoven: Piano Sonatas Nos. 8 & 23; 8 Bagatelles; Choral Fantasy, Op.80 (2003)

Category: Music

Sviatoslav Richter - Beethoven: Piano Sonatas Nos. 8 & 23; 8 Bagatelles; Choral Fantasy, Op.80 (2003)

Sviatoslav Richter - Beethoven: Piano Sonatas Nos. 8 & 23; 8 Bagatelles; Choral Fantasy, Op.80 (2003)
All-Union Radio Large Symphony Orchestra, conducted by Kurt Sanderling
USSR State Russian Chorus, Artistic Director Alexander Sveshnikov

EAC | FLAC | Image (Cue&Log) ~ 318 Mb (incl 5%) | Mp3 (CBR320) ~ 201 Mb (incl 5%) | Scans included
Genre: Classical | Label: Melodiya | # MEL CD 10 00732 | Time: 01:19:37

"This live Appassionata, from a Moscow recital of 1959, is one of the most thrilling piano performances ever recorded. Sviatoslav Richter fills every moment of the first movement with intense drama, creates the illusion of total repose in the central variations, and then takes off in the finale with an exhibition of musical virtuosity and ever-increasing tension that becomes almost unbearably intense (and unbelievably fast and accurate). The studio Pathétique is quite fine, and the Fantasy (sung in Russian!) well performed by all but still rather quaint in its effect. But don't miss that Appassionata!"

Review by Leslie Gerber, Amazon.com

"I must say that in my opinion Sviatoslav Richter is the finest interpreter of Beethoven this century. This disc is a perfect example with which to support my case. It couples two of Beethoven's greatest piano sonatas, the Pathetique and Appassionata, with some charming bagatelles, and the underrated Choral Fantasy. The Pathetique is a studio version from the 50s in mono sound (if you need a reference the whole disc is mono but sounds slightly clearer than Gould's famous 1955 Goldberg Variations), and it is simply the best performance of this famous sonata that I've ever heard. Unlike so many other pianists, Richter actually plays the first movement at a correct tempo, with it's slow opening turning into a rather fast burst of pianistic energy. Too often you hear a recording of this sonata that starts of Grave and moves to an allegretto. Thankfully, Richter actually plays the movement allegro as specified. The famous second movemtent is without a doubt the most perfect and moving I've ever heard. The rondo is also simply amazing. Richter has the incredible ability to play a rondo as light, yet emotional music at the same time. It seems like a paradox, but this amazing one of a kind pianist is able to pull it off. The Appassionata is hands down the best piano performance available on disk. It's a live recording and showcases Richter in his prime. It's simply the most emotionally stirring piano performance I've ever heard. Words fail to describe the power that Richter conjures from Beethoven's keyboard masterpiece. It's is a must hear. The fillers are the bagatelles and the choral fantasy, and even though they may just be there to fill the rest of the disk, they are quite simply stunning. The bagatelles, small dance works that were greatly popularized by Beethoven, come off sounding like the masterpieces they are. Too often they're thrown off as light music, perhaps given to a piano student as a learning tool. Basically they're not taken as seriously as they should. Luckily, Richter believed them to be miniature masterpieces, and it shows in his playing. The Choral Fantasy is in russian, translated from the original german, and may sound odd if you've heard other versions, but sanderling and his orchestra and chorus along with Richter's amazing talents make another one of Beethoven's neglected masterpieces shine as bright as it should. This disc is full of absolutely amazing performances and at an incredible price. It showcases Richter's amazing talent, and supports the belief of many, including myself, that he is THE Beethoven interpreter. Even though the sound is mono, the quality is still relatively good. Excellent performances and better than average mono sound at a bargain price make this CD an essential.

Review by A. Michaelson, Amazon.com

Tracklist:

Piano Sonata No.8 in C minor, Op.13 'Pathétique':
01. Grave, Allegro di molto e con brio (07:34)
02. Adagio cantabile (05:27)
03. Allegro (04:35)

8 Bagatelles:
04. in F Major, Op.33 No.3 (Allegretto) (02:02)
05. in C Major, Op.33 No.5 (Allegro ma non troppo) (02:42)
06. in C Major, Op.119 No.2 (Andante con moto) (00:57)
07. in C Major, Op.119 No.7 (Allegro ma non troppo) (01:07)
08. in a minor, Op.119 No.9 (Vivace moderato) (00:44)
09. in G Major, Op.126 No.1 (Andante con moto catabile e compiacevole) (03:35)
10. in b minor, Op.126 No.4 (Presto) (03:43)
11. in E-flat Major, Op.126 No.6 (Presto - Andante amabile e con moto) (04:08)

Piano Sonata No.23 in F minor, Op.57 'Appassionata'
12. Allegro assai (10:17)
13. Andante con moto (06:06)
14. Allegro ma non troppo- Presto (07:17)

Fantasy for Piano, Chorus and Orchestra in C minor, Op.80
15. Adagio (03:31)
16. Finale - Allegro (11:38)
17. Allegretto ma non troppo (04:07)


Exact Audio Copy V0.99 prebeta 5 from 4. May 2009

Отчёт EAC об извлечении, выполненном 4. февраля 2012, 23:51

Sviatoslav Richter / Ludwig van Beethoven

Дисковод: _NEC DVD_RW ND-3570A Adapter: 3 ID: 0

Режим чтения : Достоверность
Использование точного потока : Да
Отключение кэша аудио : Да
Использование указателей C2 : Нет

Коррекция смещения при чтении : 48
Способность читать области Lead-in и Lead-out : Нет
Заполнение пропущенных сэмплов тишиной : Да
Удаление блоков с тишиной в начале и конце : Нет
При вычислениях CRC использовались нулевые сэмплы : Да
Интерфейс : Установленный внешний ASPI-интерфейс

Выходной формат : Пользовательский кодировщик
Выбранный битрейт : 128 kBit/s
Качество : Высокий
Добавление ID3-тэга : Нет
Утилита сжатия : C:\Program Files\Exact Audio Copy\Flac\flac.exe
Дополнительные параметры : -8 -V -T "ARTIST=%a" -T "TITLE=%t" -T "ALBUM=%g" -T "DATE=%y" -T "TRACKNUMBER=%n" -T "GENRE=%m" -T "COMMENT=EAC FLAC -8" %s

TOC извлечённого CD

Трек | Старт | Длительность | Начальный сектор | Конечный сектор
---------------------------------------------------------------------
1 | 0:00.00 | 7:34.25 | 0 | 34074
2 | 7:34.25 | 5:27.60 | 34075 | 58659
3 | 13:02.10 | 4:35.03 | 58660 | 79287
4 | 17:37.13 | 2:02.67 | 79288 | 88504
5 | 19:40.05 | 2:42.08 | 88505 | 100662
6 | 22:22.13 | 0:57.30 | 100663 | 104967
7 | 23:19.43 | 1:07.25 | 104968 | 110017
8 | 24:26.68 | 0:44.30 | 110018 | 113347
9 | 25:11.23 | 3:35.07 | 113348 | 129479
10 | 28:46.30 | 3:43.13 | 129480 | 146217
11 | 32:29.43 | 4:08.55 | 146218 | 164872
12 | 36:38.23 | 10:17.32 | 164873 | 211179
13 | 46:55.55 | 6:06.30 | 211180 | 238659
14 | 53:02.10 | 7:17.53 | 238660 | 271487
15 | 60:19.63 | 3:31.00 | 271488 | 287312
16 | 63:50.63 | 11:38.55 | 287313 | 339717
17 | 75:29.43 | 4:07.17 | 339718 | 358259

Характеристики диапазона извлечения и сообщения об ошибках

Выбранный диапазон

Имя файла F:\Exact Audio Copy\Beethoven - Piano Sonatas Op.13 & Op.57, Fantasy Op.80, 8 Bagatelles - Richter, Sanderling\Sviatoslav Richter - Ludwig van Beethoven.wav

Пиковый уровень 98.0 %
Качество диапазона 100.0 %
CRC теста 8208BB0A
CRC копии 8208BB0A
Копирование... OK

Ошибок не произошло


AccurateRip: сводка

Трек 1 точное извлечение (доверие 3) [9DC00B76]
Трек 2 точное извлечение (доверие 3) [5D0A3B94]
Трек 3 точное извлечение (доверие 3) [7848D8D6]
Трек 4 точное извлечение (доверие 3) [CAC85594]
Трек 5 точное извлечение (доверие 3) [E1255D18]
Трек 6 точное извлечение (доверие 3) [F90AFCD7]
Трек 7 точное извлечение (доверие 3) [1E2349DF]
Трек 8 точное извлечение (доверие 3) [700816BF]
Трек 9 точное извлечение (доверие 3) [566D7039]
Трек 10 точное извлечение (доверие 3) [8361C4D8]
Трек 11 точное извлечение (доверие 3) [8D2860E3]
Трек 12 точное извлечение (доверие 3) [F99F5AE5]
Трек 13 точное извлечение (доверие 3) [8F5D46D4]
Трек 14 точное извлечение (доверие 3) [90D0D61B]
Трек 15 точное извлечение (доверие 3) [D3173C94]
Трек 16 точное извлечение (доверие 3) [C50FF9BE]
Трек 17 точное извлечение (доверие 2) 45322A6

Все треки извлечены точно

Конец отчёта

foobar2000 1.3.8 / Dynamic Range Meter 1.1.1
log date: 2015-06-03 18:20:21

--------------------------------------------------------------------------------
Analyzed: Sviatoslav Richter / Ludwig van Beethoven - Sonatas 8 & 23, Bagatelles, Choral Fantasy
--------------------------------------------------------------------------------

DR Peak RMS Duration Track
--------------------------------------------------------------------------------
DR13 -2.37 dB -19.64 dB 7:34 01-Piano Sonata No.8 in C minor, Op.13 - Grave, Allegro di molto e con brio
DR19 -5.23 dB -29.55 dB 5:28 02-Piano Sonata No.8 in C minor, Op.13 - Adagio cantabile
DR14 -2.00 dB -21.35 dB 4:35 03-Piano Sonata No.8 in C minor, Op.13 - Allegro
DR12 -3.08 dB -22.05 dB 2:03 04-Bagatelle in F Major, Op.33 No.3 (Allegretto)
DR14 -2.62 dB -19.73 dB 2:42 05-Bagatelle in C Major, Op.33 No.5 (Allegro ma non troppo)
DR10 -9.03 dB -23.86 dB 0:57 06-Bagatelle in C Major, Op.119 No.2 (Andante con moto)
DR11 -3.22 dB -21.07 dB 1:07 07-Bagatelle in C Major, Op.119 No.7 (Allegro ma non troppo)
DR12 -7.75 dB -23.17 dB 0:44 08-Bagatelle in a minor, Op.119 No.9 (Vivace moderato)
DR13 -12.08 dB -28.99 dB 3:35 09-Bagatelle in G Major, Op.126 No.1 (Andante con moto catabile e compiacevole)
DR11 -3.10 dB -19.46 dB 3:43 10-Bagatelle in b minor, Op.126 No.4 (Presto)
DR15 -3.49 dB -25.01 dB 4:09 11-Bagatelle in E-flat Major, Op.126 No.6 (Presto - Andante amabile e con moto)
DR14 -0.50 dB -20.39 dB 10:17 12-Piano Sonata No.23 in F minor, Op.57 - Allegro assai
DR17 -3.65 dB -27.00 dB 6:06 13-Piano Sonata No.23 in F minor, Op.57 - Andante con moto
DR13 -0.17 dB -17.12 dB 7:18 14-Piano Sonata No.23 in F minor, Op.57 - Allegro ma non troppo- Presto
DR10 -3.99 dB -19.78 dB 3:31 15-Fantasy in C minor, Op.80 - Adagio
DR13 -1.23 dB -20.34 dB 11:39 16-Fantasy in C minor, Op.80 - Finale - Allegro
DR12 -1.51 dB -17.05 dB 4:07 17-Fantasy in C minor, Op.80 - Allegretto ma non troppo
--------------------------------------------------------------------------------

Number of tracks: 17
Official DR value: DR13

Samplerate: 44100 Hz
Channels: 2
Bits per sample: 16
Bitrate: 516 kbps
Codec: FLAC
================================================================================
Password: designol
Download link:



Links are Interchangeable - No Password - Single Extraction

uploaded


Rapidgator.net

Site BBcode/HTML Code:
Dear visitor, you went to the site as unregistered user.
We recommend you Sign up or Login to website under your name.
Information
Would you like to leave your comment? Please Login to your account to leave comments. Don't have an account? You can create a free account now.

Tag Cloud

archive of news

^
 
free html hit counter