» » Monk-Gillespie-Stitt-Blakey - Bop Fathers Completed (2014)
uploaded.to



Information of news
4-06-2015, 19:49

Monk-Gillespie-Stitt-Blakey - Bop Fathers Completed (2014)

Category: Music

Monk-Gillespie-Stitt-Blakey - Bop Fathers Completed (2014)

Monk-Gillespie-Stitt-Blakey - Bop Fathers Completed (2014)
EAC | FLAC | Image (Cue&Log) ~ 233 Mb (incl 5%) | Mp3 (CBR320) ~ 177 Mb (incl 5%) | Scans included
Genre: Bop | Label: Studio Songs | # YZSO-10045 | Time: 01:09:41

"'Bop Fathers' is a live album of an Paris concert by Art Blakey (drums), Dizzy Gillespie (trumpet), Al McKibbon (bass), Thelonious Monk (piano), Sonny Stitt (alto & tenor sax) and Kai Winding (trombone), who were collectively billed as The Giants of Jazz. Recorded live at Paris, 1971."

Tracklist:

01. I Mean You (11:50)
02. Round Midnight (08:20)
03. Tour de Force (13:24)
04. Tin Tin Deo (10:07)
05. Lover Man (04:38)
06. Woodyn' You (09:40)
07. Don't Blame Me (03:49)
08. A Night in Tunisia (07:50)


Exact Audio Copy V1.0 beta 6 from 9. April 2015

EAC extraction logfile from 1. June 2015, 22:56

Monk-Gillespie-Stitt-Blakey / Bop Fathers Completed

Used drive : ASUS DRW-24B1LT Adapter: 1 ID: 1

Read mode : Secure
Utilize accurate stream : Yes
Defeat audio cache : Yes
Make use of C2 pointers : No

Read offset correction : 6
Overread into Lead-In and Lead-Out : No
Fill up missing offset samples with silence : Yes
Delete leading and trailing silent blocks : No
Null samples used in CRC calculations : Yes
Used interface : Native Win32 interface for Win NT & 2000

Used output format : User Defined Encoder
Selected bitrate : 768 kBit/s
Quality : High
Add ID3 tag : No
Command line compressor : C:\Program Files\Exact Audio Copy\Flac\flac.exe
Additional command line options : -8 -V -T "ARTIST=%artist%" -T "TITLE=%title%" -T "ALBUM=%albumtitle%" -T "DATE=%year%" -T "TRACKNUMBER=%tracknr%" -T "TOTALTRACKS=%numtracks%" -T "GENRE=%genre%" -T "ALBUMARTIST=%albumartist%" -T "ALBUM ARTIST=%albumartist%" -T "COMMENT=EAC Secure Mode, Test & Copy, AccurateRip, FLAC -8" %source%

TOC of the extracted CD

Track | Start | Length | Start sector | End sector
---------------------------------------------------------
1 | 0:00.00 | 11:50.12 | 0 | 53261
2 | 11:50.12 | 8:20.05 | 53262 | 90766
3 | 20:10.17 | 13:24.68 | 90767 | 151134
4 | 33:35.10 | 10:07.60 | 151135 | 196719
5 | 43:42.70 | 4:38.25 | 196720 | 217594
6 | 48:21.20 | 9:40.42 | 217595 | 261136
7 | 58:01.62 | 3:49.45 | 261137 | 278356
8 | 61:51.32 | 7:50.03 | 278357 | 313609

Range status and errors

Selected range

Filename F:\audio\Monk-Gillespie-Stitt-Blakey - Bop Fathers Completed.wav

Peak level 100.0 %
Extraction speed 6.4 X
Range quality 100.0 %
Test CRC 0D806C89
Copy CRC 0D806C89
Copy OK

No errors occurred


AccurateRip summary

Track 1 accurately ripped (confidence 2) [46684A50] (AR v2)
Track 2 accurately ripped (confidence 2) [2B4B7F87] (AR v2)
Track 3 accurately ripped (confidence 2) [28FB2F45] (AR v2)
Track 4 accurately ripped (confidence 2) [EFB25B47] (AR v2)
Track 5 accurately ripped (confidence 2) [2756A632] (AR v2)
Track 6 accurately ripped (confidence 2) [86E95537] (AR v2)
Track 7 accurately ripped (confidence 2) [CFFA7F10] (AR v2)
Track 8 accurately ripped (confidence 2) [0B7D9F59] (AR v2)

All tracks accurately ripped

End of status report

---- CUETools DB Plugin V2.1.6

[CTDB TOCID: c0Cw5b4Ub02pecerPMDzTiQ_Zj4-] disk not present in database
Submit result: c0Cw5b4Ub02pecerPMDzTiQ_Zj4- has been uploaded

==== Log checksum 853EED21E1DE83768E1E265923B76782171E84D9DB6EDE4CFA840AE620BE2D0B ====

foobar2000 1.3.8 / Dynamic Range Meter 1.1.1
log date: 2015-06-03 17:43:50

--------------------------------------------------------------------------------
Analyzed: Monk-Gillespie-Stitt-Blakey / Bop Fathers Completed
--------------------------------------------------------------------------------

DR Peak RMS Duration Track
--------------------------------------------------------------------------------
DR12 -1.61 dB -16.33 dB 11:50 01-I Mean You
DR15 -0.25 dB -18.17 dB 8:20 02-Round Midnight
DR13 -1.16 dB -16.53 dB 13:25 03-Tour de Force
DR14 0.00 dB -20.22 dB 10:08 04-Tin Tin Deo
DR13 -3.79 dB -20.47 dB 4:38 05-Lover Man
DR13 -1.47 dB -16.66 dB 9:41 06-Woodyn' You
DR12 -1.32 dB -19.43 dB 3:50 07-Don't Blame Me
DR13 -2.50 dB -17.85 dB 7:50 08-A Night in Tunisia
--------------------------------------------------------------------------------

Number of tracks: 8
Official DR value: DR13

Samplerate: 44100 Hz
Channels: 2
Bits per sample: 16
Bitrate: 408 kbps
Codec: FLAC
================================================================================

Password: designol
Download link:



Links are Interchangeable - No Password - Single Extraction

uploaded


Rapidgator.net

Site BBcode/HTML Code:
Dear visitor, you went to the site as unregistered user.
We recommend you Sign up or Login to website under your name.
Information
Would you like to leave your comment? Please Login to your account to leave comments. Don't have an account? You can create a free account now.

Tag Cloud

archive of news

^
 
free html hit counter