» » CreativeLive - Creative Wow - Infrared Photography [5 Webrip (AVI)]

Information of news
5-06-2015, 10:59

CreativeLive - Creative Wow - Infrared Photography [5 Webrip (AVI)]

Category: Tutorials

CreativeLive - Creative Wow - Infrared Photography [5 Webrip (AVI)]

CreativeLive - Creative Wow - Infrared Photography [5 Webrip (AVI)]
English | Size: 1.92 GB (2,059,627,158 bytes)
Category: Photography

Jack Davis will guide you through the technology choices, in-field options and post-processing secrets that will help you incorporate the jaw-dropping beauty of infrared into your photography.

* Why Infrared?
* Infrared: Behind the Image
* Fake vs. Real Infrared
* Types of Infrared Cameras
* White Balancing Infrared Cameras
* Infrared JPEG vs. RAW
* Infrared Whitebalance in Post
* Fake Infrared Demo
* Digital Darkroom: Enhancing Infrared Images
* Digital Darkroom: High Key and Sepia
* Digital Darkroom: Hand Tinting

Main instructor

Best-Selling Author Jack "Wow" Davis is one of the world's leading experts on Adobe Photoshop and Lightroom, as well as himself being an award-winning designer and photographer. Jack is coauthor of the bestselling (a million copies+ in 12 languages) guides to Photoshop, The Photoshop Wow! Book and How to Wow: Photoshop for Photography (Benjamin Franklin Award for Best Computer Book, Computer Press Assoc: Best How-To Book, International Digital Imaging Assoc: Most Useful Book).

For over 25 years Jack has been an internationally renowned spokesperson on digital imagery, and routinely teaches at conferences and workshops around the world. Davis was one of the first inductees into the Photoshop Hall of Fame for his lifetime contributions to the industry. Jack has an MA and MFA in Digital Imagery, and when he's not in his studio in San Diego, he's usually somewhere in Polynesia, camera and paint brush in hand, capturing the local color.


Format : AVI
Format/Info : Audio Video Interleave
File size : 696 MiB
Duration : 1h 38mn
Overall bit rate mode : Variable
Overall bit rate : 991 Kbps
Writing application : BandiAviMuxer 1.0

ID : 0
Format : AVC
Format/Info : Advanced Video Codec
Format profile : [email protected]
Format settings, CABAC : Yes
Format settings, Reframes : 1 frame
Codec ID : H264
Duration : 1h 38mn
Bit rate mode : Variable
Bit rate : 883 Kbps
Maximum bit rate : 14.0 Mbps
Width : 1 216 pixels
Height : 684 pixels
Display aspect ratio : 16:9
frame rate : 25.000 fps
Color space : YUV
Chroma subsampling : 4:2:0
Bit depth : 8 bits
Scan type : Progressive
Bits/(Pixel*frame) : 0.042
Stream size : 620 MiB (89%)

ID : 1
Format : MPEG Audio
Format version : Version 1
Format profile : Layer 2
Codec ID : 50
Duration : 1h 38mn
Bit rate mode : Constant
Bit rate : 96.0 Kbps
Channel(s) : 2 channels
Sampling rate : 48.0 KHz
Compression mode : Lossy
Stream size : 67.4 MiB (10%)
Alignment : Aligned on interleaves
Interleave, duration : 24 ms (0.60 video frame)
Interleave, preload duration : 48 ms
Download link:

Links are Interchangeable - No Password - Single Extraction



Site BBcode/HTML Code:
Dear visitor, you went to the site as unregistered user.
We recommend you Sign up or Login to website under your name.
Would you like to leave your comment? Please Login to your account to leave comments. Don't have an account? You can create a free account now.

Tag Cloud

archive of news

free html hit counter