» » Steve Morse Band - Stand Up (1985) [Reissue 2002]
uploaded.to



Information of news
5-06-2015, 12:27

Steve Morse Band - Stand Up (1985) [Reissue 2002]

Category: Music

Steve Morse Band - Stand Up (1985) [Reissue 2002]

Steve Morse Band - Stand Up (1985) [Reissue 2002]
EAC Rip | FLAC (tracks & cue & log) | 265 MB | MP3 CBR 320 kbps | 94 MB | Scans | 39:19
Genre: Progressive Rock / Country Rock / Instrumental Rock | Country: UK | Wounded Bird Records | WOU 448

"Stand Up is the second studio album by the guitarist Steve Morse, released in 1985 by Elektra Records.Steve Morse's second album from his solo career named Stand up from 1985 is a natural continuation of what he did in Dixie Dregs (but less progressive)and with some moments who remind me of Kansas (Power era, who aswell feature Steve on guitar). The music , at least on this album is nothing realy progressive like he did with Dixie Dregs (only hints from that period is here) is more towards AOR with some elements of Kansas (the'80's) or even some hard rock numbers where the guitar of Steve realy did a good job."

Steve Morse Band - Stand Up (1985) [Reissue 2002]
EAC Rip | FLAC (tracks & cue & log) | 265 MB | MP3 CBR 320 kbps | 94 MB | Scans | 39:19
Genre: Progressive Rock / Country Rock / Instrumental Rock | Country: UK | Wounded Bird Records | WOU 448

"Stand Up is the second studio album by the guitarist Steve Morse, released in 1985 by Elektra Records.Steve Morse's second album from his solo career named Stand up from 1985 is a natural continuation of what he did in Dixie Dregs (but less progressive)and with some moments who remind me of Kansas (Power era, who aswell feature Steve on guitar). The music , at least on this album is nothing realy progressive like he did with Dixie Dregs (only hints from that period is here) is more towards AOR with some elements of Kansas (the'80's) or even some hard rock numbers where the guitar of Steve realy did a good job. Well not all the pieces stands as real treat for me, the ones with vocals are the weakest ones, only the guitar save the problem, ex are Book of dreams - a typical AOr piece for mid '80's, nothing special, the weakest piece from here Rockin' guitars - a tune for MTV for that era again nothing special. Now the instrumental ones are the best and the most progressive stuff from here like English rancher - excellent piece who show us that Steve Morse is one of the best in guitar zone, nice arrangements, Travels of Marco Polo gain a top notch instrumental with soome chinese guitar melted very well with his excellent guitar improvisation, great piece. Steve Morse incorporated many stylistical guitar orientation here like he did in Dixie Dregs, from AOR with hard rock chops, to more progressive elements and even in places some balands or country aproach. His guitar is instantly recognizable, he play in Deep Purple aswell can recognize his sound very easy, Dixie Dregs same, he is one of a kind in guitar world. I will give to this album 3 stars, eevn is nothing very impressive here, as a whole stands as good and with nice pieces, some of them realy strong. Some famous guest musicians like Eric Johnsonn or Peter Frampton completed the album sound in a great manner.
Review by b_olariu"


2. English Rancher (Steve Morse) (4:28)
3. Rockin' Guitars (Steve Morse) (4:23)
4. Distant Star (Steve Morse and Eric Johnson) (3:58)
5. Pick Your Poison (Steve Morse) (3:30)
6. Stand Up (Steve Morse and Peter Frampton) (3:44)
7. Travels Of Marco Polo (Steve Morse) (6:02)
8. Golden Quest (Steve Morse) (4:16)
9. Unity Gain (Steve Morse) (5:32)

EAC extraction logfile from 3. June 2006, 15:24 for CD
Steve Morse Band / Stand Up

Used drive : HL-DT-STDVDRAM GSA-4167B Adapter: 5 ID: 0
Read mode : Secure with NO C2, accurate stream, disable cache
Read offset correction : 667
Overread into Lead-In and Lead-Out : No

Used output format : C:\Program Files\FLAC\flac.exe (User Defined Encoder)
128 kBit/s
Additional command line options : -5 -V -T "ARTIST=%a" -T "TITLE=%t" -T "ALBUM=%g" -T "DATE=%y" -T "TRACKNUMBER=%n" -T "GENRE=%m" -T "COMMENT=EAC Flac 1.1.2 -5" %s

Other options :
Fill up missing offset samples with silence : Yes
Delete leading and trailing silent blocks : No
Native Win32 interface for Win NT & 2000

Track 1
Filename C:\Documents and Settings\Owner\Desktop\Steve Morse Band - Stand Up (1985) [FLAC]\01 - Book Of Dreams.wav

Pre-gap length 0:00:02.00

Peak level 100.0 %
Track quality 100.0 %
Test CRC 5D94CD18
Copy CRC 5D94CD18
Copy OK

Track 2
Filename C:\Documents and Settings\Owner\Desktop\Steve Morse Band - Stand Up (1985) [FLAC]\02 - English Rancher.wav

Peak level 97.1 %
Track quality 100.0 %
Test CRC FC3FB698
Copy CRC FC3FB698
Copy OK

Track 3
Filename C:\Documents and Settings\Owner\Desktop\Steve Morse Band - Stand Up (1985) [FLAC]\03 - Rockin' Guitars.wav

Peak level 100.0 %
Track quality 100.0 %
Test CRC 9BF502A3
Copy CRC 9BF502A3
Copy OK

Track 4
Filename C:\Documents and Settings\Owner\Desktop\Steve Morse Band - Stand Up (1985) [FLAC]\04 - Distant Star.wav

Peak level 100.0 %
Track quality 100.0 %
Test CRC FDB61F9A
Copy CRC FDB61F9A
Copy OK

Track 5
Filename C:\Documents and Settings\Owner\Desktop\Steve Morse Band - Stand Up (1985) [FLAC]\05 - Pick Your Poison.wav

Peak level 75.0 %
Track quality 100.0 %
Test CRC AF1171D5
Copy CRC AF1171D5
Copy OK

Track 6
Filename C:\Documents and Settings\Owner\Desktop\Steve Morse Band - Stand Up (1985) [FLAC]\06 - Stand Up.wav

Peak level 100.0 %
Track quality 100.0 %
Test CRC AF5D8C16
Copy CRC AF5D8C16
Copy OK

Track 7
Filename C:\Documents and Settings\Owner\Desktop\Steve Morse Band - Stand Up (1985) [FLAC]\07 - Travels Of Marco Polo.wav

Peak level 92.8 %
Track quality 100.0 %
Test CRC 8F585DD9
Copy CRC 8F585DD9
Copy OK

Track 8
Filename C:\Documents and Settings\Owner\Desktop\Steve Morse Band - Stand Up (1985) [FLAC]\08 - Golden Quest.wav

Peak level 82.5 %
Track quality 99.9 %
Test CRC 3717769D
Copy CRC 3717769D
Copy OK

Track 9
Filename C:\Documents and Settings\Owner\Desktop\Steve Morse Band - Stand Up (1985) [FLAC]\09 - Unity Gain.wav

Peak level 91.0 %
Track quality 100.0 %
Test CRC 60B4E14C
Copy CRC 60B4E14C
Copy OK

No errors occured

End of status report

Personnel

Steve Morse - Acoustic Guitar, Electric Guitar, Guitar Synthesizer
Jerry Peek - Bass Guitar
Rod Morgenstein - Drums, Percussion, Piano
Peter Frampton - Guitar
Albert Lee - Guitar, Vocals
Eric Johnson - Guitar, Vocals
T. Lavitz - Piano
Mark O'Connor - Violin
Alex Ligertwood - Vocals
Van Temple - Vocals
Download link:



Links are Interchangeable - No Password - Single Extraction

uploaded


Rapidgator.net

Site BBcode/HTML Code:
Dear visitor, you went to the site as unregistered user.
We recommend you Sign up or Login to website under your name.
Information
Would you like to leave your comment? Please Login to your account to leave comments. Don't have an account? You can create a free account now.

Tag Cloud

archive of news

^
 
free html hit counter