» » Crosby, Stills, Nash & Young - So Far (1974)
uploaded.to



Information of news
5-06-2015, 13:15

Crosby, Stills, Nash & Young - So Far (1974)

Category: Music

Crosby, Stills, Nash & Young - So Far (1974)

Crosby, Stills, Nash & Young - So Far (1974)
EAC Rip | FLAC (image & cue & log) | 383 MB | MP3 CBR 320 kbps | 164 MB | Scans | 43:19
Genre: Melodic Hard Rock / Country Rock / Folk Rock | Country: UK | Label: Atlantic | 82648-2

"So Far is the fourth album by Crosby, Stills & Nash, their third as Crosby, Stills, Nash & Young, and the first compilation album released by the group. Shipping as a gold record and peaking at #1 on the Billboard Top Pop Albums chart, it was the band's third chart-topping album in a row. It has been certified six times platinum by the RIAA."

"Unbeknown to most fans, So Far was a stopgap release, undertaken by Atlantic Records in the absence of a new Crosby, Stills, Nash & Young album to accompany the reunited quartet's summer 1974 tour. At the time, the members thought it was ridiculous to release a greatest-hits/best-of compilation distilled down from two in-print LPs plus the single sides "Ohio" and "Find the Cost of Freedom"; but propelled by the publicity surrounding the group's massive stadium tour (the first exclusive stadium tour ever done in rock), So Far topped the charts and sold hundreds of thousands of copies, all without containing so much as a single new note of music. Ironically, the quartet had been working on what would have been, by all accounts, the best album in their history; as with so many other projects attempted by the four-man lineup, however, that album fell apart halfway through, amid clashes of egos and creative differences, and so there was So Far. Taken on its own terms, the album manages to be both enjoyable and frustrating, as well as virtually obsolete in the 21st century -- the Joni Mitchell cover art is cool, and the presence of "Ohio" and "Find the Cost of Freedom" makes it attractive (until the 1990s, So Far was the only album to contain both songs); and a case can be made that it contains some of the better moments from Crosby, Stills & Nash and Déjà Vu. The problem is that those were two virtually perfect albums, and the idea of excerpting parts of them for a compilation makes no more sense than, say, excerpting the first two Beatles albums for a "best of" on that band. Further, it's not even a true greatest-hits or best-of compilation, with "Marrakesh Express" not present. And it is difficult to imagine anyone who enjoys this disc not enjoying the two complete albums even more. So, essentially, owning So Far serves no purpose except to get "Ohio" and "Find the Cost of Freedom," which are also on Carry On and the Crosby, Stills & Nash box, both of which offer a lot more, dollar for dollar and song for song. For those inclined to buy it, however, the 1994 reissue (Atlantic 82648) of So Far is to be preferred for sound quality over the earlier edition.
www.allmusic.com
"



Tracklist:

1 Deja Vu
2 Helplessly Hoping
3 Wooden Ships
4 Teach Your Children
5 Ohio
6 Find The Cost Of Freedom
7 Woodstock
8 Our House
9 Helpless
10 Guinnevere
11 Suite: Judy Blue Eyes

Exact Audio Copy V0.99 prebeta 4 from 23. January 2008

Отчёт EAC об извлечении, выполненном 29. сентября 2010, 23:24

Crosby, Stills, Nash & Young / So Far

Дисковод: _NEC DVD_RW ND-3520A Adapter: 3 ID: 0

Режим чтения : Достоверность
Использование точного потока : Да
Отключение кэша аудио : Да
Использование указателей C2 : Нет

Коррекция смещения при чтении : 48
Способность читать области Lead-in и Lead-out : Нет
Заполнение пропущенных сэмплов тишиной : Да
Удаление блоков с тишиной в начале и конце : Нет
При вычислениях CRC использовались нулевые сэмплы : Да
Интерфейс : Встроенный Win32-интерфейс для Win NT/2000

Выходной формат : Пользовательский кодировщик
Выбранный битрейт : 1024 kBit/s
Качество : Высокий
Добавление ID3-тэга : Нет
Утилита сжатия : C:\Program Files\Exact Audio Copy\Flac\flac.exe
Дополнительные параметры : -8 -V -T "ARTIST=%a" -T "TITLE=%t" -T "ALBUM=%g" -T "DATE=%y" -T "TRACKNUMBER=%n" -T "GENRE=%m" -T "COMMENT=EAC FLAC -8" %s

TOC извлечённого CD

Трек | Старт | Длительность | Начальный сектор | Конечный сектор
---------------------------------------------------------------------
1 | 0:00.32 | 4:14.05 | 32 | 19086
2 | 4:14.37 | 2:41.60 | 19087 | 31221
3 | 6:56.22 | 5:30.35 | 31222 | 56006
4 | 12:26.57 | 2:59.03 | 56007 | 69434
5 | 15:25.60 | 3:05.02 | 69435 | 83311
6 | 18:30.62 | 2:01.40 | 83312 | 92426
7 | 20:32.27 | 3:56.38 | 92427 | 110164
8 | 24:28.65 | 3:02.45 | 110165 | 123859
9 | 27:31.35 | 3:40.27 | 123860 | 140386
10 | 31:11.62 | 4:42.08 | 140387 | 161544
11 | 35:53.70 | 7:25.37 | 161545 | 194956

Характеристики диапазона извлечения и сообщения об ошибках

Выбранный диапазон

Имя файла D:\Выкладываемое\Crosby, Stills, Nash & Young\Crosby, Stills, Nash & Young - So Far.wav

Пиковый уровень 95.5 %
Качество диапазона 99.9 %
CRC теста 78847A8B
CRC копии 78847A8B
Копирование... OK

Ошибок не произошло

AccurateRip: сводка

Трек 1 точное извлечение (доверие 46) [957A8BD5]
Трек 2 точное извлечение (доверие 46) [4C93CFBA]
Трек 3 точное извлечение (доверие 46) [9B439CA7]
Трек 4 точное извлечение (доверие 46) [09699C35]
Трек 5 точное извлечение (доверие 48) [2CBBAB23]
Трек 6 точное извлечение (доверие 47) [AD27B76C]
Трек 7 точное извлечение (доверие 46) [ECA08728]
Трек 8 точное извлечение (доверие 47) [F782F831]
Трек 9 точное извлечение (доверие 46) [68C7A0DF]
Трек 10 точное извлечение (доверие 46) [7FAC254A]
Трек 11 точное извлечение (доверие 45) [200B8C37]

Все треки извлечены точно

Конец отчёта

Personnel

David Crosby - Electric Guitar
Stephen Stills - Acoustic Guitar,Electric Guitar
Graham Nash - Vocals, Guitar
Neil Young - Vocals,Acoustic Guitar,Electric Guitar
Joni Mitchell - Vocals

All thanks to Женя 91
Download link:



Links are Interchangeable - No Password - Single Extraction

uploaded


Rapidgator.net

Site BBcode/HTML Code:
Dear visitor, you went to the site as unregistered user.
We recommend you Sign up or Login to website under your name.
Information
Would you like to leave your comment? Please Login to your account to leave comments. Don't have an account? You can create a free account now.

Tag Cloud

archive of news

^
 
free html hit counter