» » Europe - War Of Kings (2015) [Japan, VICP-65293]
uploaded.to



Information of news
11-06-2015, 20:35

Europe - War Of Kings (2015) [Japan, VICP-65293]

Category: Music

Europe - War Of Kings (2015) [Japan, VICP-65293]

Europe - War Of Kings (2015)(Japan-VICP-65293)
EAC Rip | FLAC (Img) + Cue + Log ~ 385 Mb | Scans (JPG, 300 dpi) ~ 119 Mb | RAR 5% Recovery
Hard Rock, Heavy Metal | Victor Entertainment #VICP-65293

"Swedish rock legends Europe released their 10th album, War of Kings, in March 2015. Recorded at the brand new PanGaia Studios in Stockholm, Sweden, produced by Dave Cobb (Rival Sons) and engineered by John Netti, War of Kings sees the classic rocking quintet confidently creating 11 monsterously melodic, yet hard-hitting, classic rock'n'roll standouts for their fervent global audience. War of Kings will be available in multiple formats, as a CD digipak, a CD jewel case, a vinyl LP and in digital download format. The album will be released in the UK on March 2nd, Japan on March 4th (via JVC), the EU on March 6th and the US on March 10th."

Track List:

01. War of Kings [04:37]
02. Hole in My Pocket [03:43]
03. The Second Day [05:24]
04. Praise You [04:35]
05. Nothin' to Ya [03:55]
06. California 405 [04:32]
07. Days of Rock 'n' Roll [03:06]
08. Children of the Mind [04:31]
09. Rainbow Bridge [03:17]
10. Angels (with Broken Hearts) [05:20]
11. Light It Up [06:11]
12. Vasastan [05:12]

Exact Audio Copy V1.0 beta 3 from 29. August 2011

EAC extraction logfile from 8. June 2015, 20:31

Europe / War of Kings

Used drive : Optiarc DVD RW AD-7243S Adapter: 1 ID: 0

Read mode : Secure
Utilize accurate stream : Yes
Defeat audio cache : Yes
Make use of C2 pointers : No

Read offset correction : 48
Overread into Lead-In and Lead-Out : No
Fill up missing offset samples with silence : Yes
Delete leading and trailing silent blocks : No
Null samples used in CRC calculations : Yes
Used interface : Native Win32 interface for Win NT & 2000

Used output format : User Defined Encoder
Selected bitrate : 768 kBit/s
Quality : High
Add ID3 tag : Yes
Command line compressor : E:\EAC NEW\Exact Audio Copy\Flac\flac.exe
Additional command line options : -V -8 -T "Date=%year%" -T "Genre=%genre%" %source%

TOC of the extracted CD

Track | Start | Length | Start sector | End sector
---------------------------------------------------------
1 | 0:00.00 | 4:36.02 | 0 | 20701
2 | 4:36.02 | 3:42.26 | 20702 | 37377
3 | 8:18.28 | 5:23.43 | 37378 | 61645
4 | 13:41.71 | 4:34.22 | 61646 | 82217
5 | 18:16.18 | 3:54.67 | 82218 | 99834
6 | 22:11.10 | 4:31.24 | 99835 | 120183
7 | 26:42.34 | 3:05.35 | 120184 | 134093
8 | 29:47.69 | 4:30.72 | 134094 | 154415
9 | 34:18.66 | 3:16.02 | 154416 | 169117
10 | 37:34.68 | 5:19.14 | 169118 | 193056
11 | 42:54.07 | 6:10.09 | 193057 | 220815
12 | 49:04.16 | 5:11.36 | 220816 | 244176

Range status and errors

Selected range

Filename D:\Varvaar rec\New 35\Europe[2015]War Of Kings (Japan-VICP-65293)\Europe - War of Kings.wav

Peak level 100.0 %
Extraction speed 3.9 X
Range quality 100.0 %
Test CRC AD3A03AD
Copy CRC AD3A03AD
Copy OK

No errors occurred


AccurateRip summary

Track 1 accurately ripped (confidence 2) [DE220C9A] (AR v2)
Track 2 accurately ripped (confidence 2) [DFED1BC8] (AR v2)
Track 3 accurately ripped (confidence 2) [CF402508] (AR v2)
Track 4 accurately ripped (confidence 2) [A8B21F62] (AR v2)
Track 5 accurately ripped (confidence 2) [6ED86BB9] (AR v2)
Track 6 accurately ripped (confidence 2) [10E47546] (AR v2)
Track 7 accurately ripped (confidence 2) 045AEB7 (AR v2)
Track 8 accurately ripped (confidence 2) [5F7E4688] (AR v2)
Track 9 accurately ripped (confidence 2) [5618B6C4] (AR v2)
Track 10 accurately ripped (confidence 2) [7E69C061] (AR v2)
Track 11 accurately ripped (confidence 2) [5460C4ED] (AR v2)
Track 12 accurately ripped (confidence 2) [7FA78B14] (AR v2)

All tracks accurately ripped

End of status report

==== Log checksum 43574C8902B54F81F41BF50951D1FF1A0F520F6512377EBCDCA24719EF41DA7F ====

foobar2000 1.2.6 / Dynamic Range Meter 1.1.1
log date: 2015-06-11 00:06:22

--------------------------------------------------------------------------------
Analyzed: Europe / War of Kings
--------------------------------------------------------------------------------

DR Peak RMS Duration Track
--------------------------------------------------------------------------------
DR7 0.00 dB -8.12 dB 4:36 01-War of Kings
DR6 0.00 dB -7.17 dB 3:42 02-Hole in My Pocket
DR7 0.00 dB -8.87 dB 5:24 03-The Second Day
DR7 -0.02 dB -9.19 dB 4:34 04-Praise You
DR6 -0.05 dB -7.63 dB 3:55 05-Nothin' to Ya
DR8 0.00 dB -8.83 dB 4:31 06-California 405
DR6 -0.07 dB -7.69 dB 3:05 07-Days of Rock 'n' Roll
DR6 -0.01 dB -7.80 dB 4:31 08-Children of the Mind
DR7 -0.05 dB -8.02 dB 3:16 09-Rainbow Bridge
DR7 0.00 dB -9.75 dB 5:19 10-Angels (with Broken Hearts)
DR7 0.00 dB -8.20 dB 6:10 11-Light It Up
DR7 -0.07 dB -10.63 dB 5:11 12-Vasastan
--------------------------------------------------------------------------------

Number of tracks: 12
Official DR value: DR7

Samplerate: 44100 Hz
Channels: 2
Bits per sample: 16
Bitrate: 945 kbps
Codec: FLAC
================================================================================

[CUETools log; Date: 11.06.2015 0:06:20; Version: 2.1.5]
[CTDB TOCID: sI28wRIYIyowZL0bUZFPo6_4gcU-] found.
Track | CTDB Status
1 | (6/6) Accurately ripped
2 | (6/6) Accurately ripped
3 | (6/6) Accurately ripped
4 | (6/6) Accurately ripped
5 | (6/6) Accurately ripped
6 | (6/6) Accurately ripped
7 | (6/6) Accurately ripped
8 | (6/6) Accurately ripped
9 | (6/6) Accurately ripped
10 | (6/6) Accurately ripped
11 | (6/6) Accurately ripped
12 | (6/6) Accurately ripped
[AccurateRip ID: 00177669-00db020b-a50cb70c] found.
Track [ CRC | V2 ] Status
01 [397eed8c|de220c9a] (0+2/2) Accurately ripped
02 [2cf1142a|dfed1bc8] (0+2/2) Accurately ripped
03 [0b9e9c8a|cf402508] (0+2/2) Accurately ripped
04 [221407ed|a8b21f62] (0+2/2) Accurately ripped
05 [5321f2bb|6ed86bb9] (0+2/2) Accurately ripped
06 [d3bcb76e|10e47546] (0+2/2) Accurately ripped
07 [278331fa|b045aeb7] (0+2/2) Accurately ripped
08 [94e384f1|5f7e4688] (0+2/2) Accurately ripped
09 [8c3f932f|5618b6c4] (0+2/2) Accurately ripped
10 [e85f6a46|7e69c061] (0+2/2) Accurately ripped
11 [7b95b864|5460c4ed] (0+2/2) Accurately ripped
12 [ea934ac7|7fa78b14] (0+2/2) Accurately ripped

Track Peak [ CRC32 ] [W/O NULL] [ LOG ]
-- 100,0 [AD3A03AD] [DC3BCF0E] CRC32
01 100,0 [182E9AB5] A4018D1
02 100,0 [FBE0C8BA] [3D11AD18]
03 100,0 6A12530 [C5F80014]
04 99,7 [93A10626] [E535259A]
05 99,4 [61FE3620] [DE691BD6]
06 100,0 [0C873285] [164902BD]
07 99,1 [4586BDB6] [109F122C]
08 99,8 [091F1D4F] 8719BD6
09 99,3 [E40DDCF6] 6C63524
10 100,0 [0D7ACB0A] [D6B1864F]
11 100,0 [FF378F9F] [DADB6757]
12 99,1 [09B88DB8] [427C4536]
Download link:



Links are Interchangeable - No Password - Single Extraction

uploaded


Rapidgator.net

Site BBcode/HTML Code:
Dear visitor, you went to the site as unregistered user.
We recommend you Sign up or Login to website under your name.
Information
Would you like to leave your comment? Please Login to your account to leave comments. Don't have an account? You can create a free account now.

Tag Cloud

archive of news

^
 
free html hit counter