» » Tony Robbins MONEY Master the Game 7 Simple Steps to Financial Freedom - BONUS Videos
uploaded.to



Information of news
  • Author: BaDshaH
  • Date: 18-06-2015, 16:04
18-06-2015, 16:04

Tony Robbins MONEY Master the Game 7 Simple Steps to Financial Freedom - BONUS Videos

Category: Tutorials




These are the 3 Bonus videos: "FAST TRACK VIDEO SERIES" - After ordering your copy of MONEY: MASTER THE GAME you will receive an email with access to Tony's exclusive Fast Track bonus video series. You will IMMEDIATELY receive access to three Fast Track videos to help jump start your journey to financial freedom.
Publisher's Summary

Tony Robbins has coached and inspired more than 50 million people from over 100 countries. More than four million people have attended his live events. Oprah Winfrey calls him "super-human". Now for the first time - in his first book in two decades - he's turned to the topic that vexes us all: How to secure financial freedom for ourselves and our families.

Based on extensive research and one-on-one interviews with more than 50 of the most legendary financial experts in the world - from Carl Icahn and Warren Buffett, to Ray Dalio and Steve Forbes - Tony Robbins has created a simple 7-step blueprint that anyone can use for financial freedom.

Robbins has a brilliant way of using metaphor and story to illustrate even the most complex financial concepts - making them simple and actionable. With expert advice on our most important financial decisions, Robbins is an advocate for the listener, dispelling the myths that often rob people of their financial dreams.

Tony Robbins walks listeners of every income level through the steps to become financially free by creating a lifetime income plan. This audiobook delivers invaluable information and essential practices for getting your financial house in order.
MONEY Master the Game is the book millions of people have been waiting for.

http://anonym.to/?http://moneymasterthegame.com/



Tony Robbins  MONEY Master the Game  7 Simple Steps to Financial Freedom - BONUS Videos


General
Complete name : Money Fast Track Video Series-3.mp4
Format : MPEG-4
Format profile : Base Media
Codec ID : isom
File size : 222 MiB
Duration : 51mn 5s
Overall bit rate mode : Variable
Overall bit rate : 608 Kbps
Writing application : Lavf55.44.100

Video
ID : 1
Format : AVC
Format/Info : Advanced Video Codec
Format settings, CABAC : Yes
Format settings, ReFrames : 4 frames
Codec ID : avc1
Codec ID/Info : Advanced Video Coding
Duration : 51mn 5s
Bit rate : 500 Kbps
Width : 640 pixels
Height : 480 pixels
Display aspect ratio : 4:3
Frame rate mode : Constant
Frame rate : 23.976 fps
Color space : YUV
Chroma subsampling : 4:2:0
Bit depth : 8 bits
Scan type : Progressive
Bits/(Pixel*Frame) : 0.068
Stream size : 182 MiB (82%)
Writing library : x264 core 142 r2431 a5831aa

Audio
ID : 2
Format : AAC
Format/Info : Advanced Audio Codec
Format profile : LC
Codec ID : 40
Duration : 51mn 5s
Duration_FirstFrame : 60ms
Duration_LastFrame : -20ms
Bit rate mode : Variable
Bit rate : 106 Kbps
Maximum bit rate : 128 Kbps
Channel(s) : 2 channels
Channel positions : Front: L R
Sampling rate : 44.1 KHz
Compression mode : Lossy
Stream size : 38.7 MiB (17%)


Screenshots

Tony Robbins  MONEY Master the Game  7 Simple Steps to Financial Freedom - BONUS Videos

Tony Robbins  MONEY Master the Game  7 Simple Steps to Financial Freedom - BONUS Videos

Tony Robbins  MONEY Master the Game  7 Simple Steps to Financial Freedom - BONUS Videos



Tony Robbins  MONEY Master the Game  7 Simple Steps to Financial Freedom - BONUS Videos

I recommends Buy premimum account for High speed+parallel downloads!

rapidgator


Nitroflare


uploaded


Rapidgator.net

Site BBcode/HTML Code:
Dear visitor, you went to the site as unregistered user.
We recommend you Sign up or Login to website under your name.
Information
Would you like to leave your comment? Please Login to your account to leave comments. Don't have an account? You can create a free account now.

Tag Cloud

archive of news

^
 
free html hit counter