» » Hal Leonard Guitar Play-Along Volume 43 - SRV Classics
uploaded.to



Information of news
  • Author: BaDshaH
  • Date: 27-06-2015, 10:12
27-06-2015, 10:12

Hal Leonard Guitar Play-Along Volume 43 - SRV Classics

Category: Tutorials





"The Guitar Play Along DVD series lets you hear and see how to play songs like never before. Just watch, listen and learn! Each song starts with a lesson from a professional guitar teacher. Then, the teacher performs the complete song along with professionally recorded backing tracks. You can choose to turn the guitar off if you want to play along or leave the guitar in the mix to hear how it should sound. You can also choose from multiple viewing options; fret hand with tab, wide view with tab, pick & fret hand close-up, and others."


This volume includes 8 legendary SRV tunes: Ain't Gone 'n' Give up on Love * Cold Shot * Crossfire * Honey Bee * Life Without You * Mary Had a Little Lamb * Rude Mood * The Sky Is Crying.

General
Complete name : HLGPASRV43 - 03 - Crossfire - Player's View w_Pick Hand Close Up.m4v
Format
: MPEG-4
Format profile : Base Media / Version 2
Codec ID
: mp42
File size
: 48.0 MiB
Duration
: 4mn 11s
Overall bit rate mode : Variable
Overall bit rate : 1 602 Kbps
Writing application

: HandBrake 0.10.1 2015030800

Video
ID : 1
Format
: AVC
Format/Info
: Advanced Video Codec
Format settings, CABAC : Yes
Format settings, ReFrames : 4 frames
Codec ID
: avc1
Codec ID/Info : Advanced Video Coding
Duration
: 4mn 11s
Bit rate
: 1 431 Kbps
Width
: 720 pixels
Height
: 480 pixels
Display aspect ratio : 16:9
Original display aspect ratio : 16:9
Frame rate mode : Variable
Frame rate
: 29.904 fps
Minimum frame rate

: 3.241 fps
Maximum frame rate

: 29.970 fps
Standard
: NTSC
Color space
: YUV
Chroma subsampling

: 4:2:0
Bit depth
: 8 bits
Scan type
: Progressive
Bits/(Pixel*Frame)

: 0.138
Stream size
: 42.9 MiB (89%)
Writing library : x264 core 142 r2479 dd79a61
Encoding settings: cabac=1 / ref=1 / deblock=1:0:0 / analyse=0x1:0x111 / me=hex / subme=2 / psy=1 / psy_rd=1.00:0.00 / mixed_ref=0 / me_range=16 / chroma_me=1 / trellis=0 / 8x8dct=0 / cqm=0 / deadzone=21,11 / fast_pskip=1 / chroma_qp_offset=0 / threads=12 / lookahead_threads=3 / sliced_threads=0 / nr=0 / decimate=1 / interlaced=0 / bluray_compat=0 / constrained_intra=0 / bframes=3 / b_pyramid=2 / b_adapt=1 / b_bias=0 / direct=1 / weightb=1 / open_gop=0 / weightp=1 / keyint=300 / keyint_min=30 / scenecut=40 / intra_refresh=0 / rc_lookahead=10 / rc=crf / mbtree=1 / crf=20.0 / qcomp=0.60 / qpmin=0 / qpmax=69 / qpstep=4 / vbv_maxrate=20000 / vbv_bufsize=25000 / crf_max=0.0 / nal_hrd=none / filler=0 / ip_ratio=1.40 / aq=1:1.00
Color primaries : BT.601-6 525, BT.1358 525, BT.1700 NTSC, SMPTE 170M
Transfer characteristics : BT.709-5, BT.1361
Matrix coefficients

: BT.601-6 525, BT.1358 525, BT.1700 NTSC, SMPTE 170M

Audio
ID : 2
Format
: AAC
Format/Info
: Advanced Audio Codec
Format profile : LC
Codec ID
: 40
Duration
: 4mn 10s
Bit rate mode : Variable
Bit rate
: 165 Kbps
Channel(s)
: 2 channels
Channel positions: Front: L R
Sampling rate : 48.0 KHz
Compression mode : Lossy
Stream size
: 4.94 MiB (10%)
Title
: Stereo


Screenshots

Hal Leonard  Guitar Play-Along Volume 43 - SRV Classics

Hal Leonard  Guitar Play-Along Volume 43 - SRV Classics

Hal Leonard  Guitar Play-Along Volume 43 - SRV Classics



I recommends Buy premimum account for High speed+parallel downloads!

rapidgator


Nitroflare


uploaded


Rapidgator.net

Site BBcode/HTML Code:
Dear visitor, you went to the site as unregistered user.
We recommend you Sign up or Login to website under your name.
Information
Would you like to leave your comment? Please Login to your account to leave comments. Don't have an account? You can create a free account now.

Tag Cloud

archive of news

^
 
free html hit counter