» » Michael McNabb - Computer Music (1983) (MFSL)

Information of news
2-07-2015, 05:11

Michael McNabb - Computer Music (1983) (MFSL)

Category: Music

Michael McNabb - Computer Music (1983) (MFSL)

Michael McNabb - Computer Music (1983) (MFSL)
EAC Rip | FLAC with CUE and log | scans | 123mb
MP3 CBR 320kbps | RAR | 83mb
Genre: electronic

Computer Music is the 1983 album by electronic artist Michael McNabb. This is an audiophile pressing released by Mobile Fidelity Sound Lab, following its original release on 1750 Arch.
1. Dreamsong (9:10)
2. Love In The Asylum (14:00)
I. Mad As Birds
allegro ridendo
accelerando perpetuamente

II. Pirouette
III. The Magician's Daughter

3. Mars Suite (9:20)
I. Orbital View
II. Chryse Planitia
III. Olympus Mons Flanked By Clouds

EAC extraction logfile from 16. August 2006, 13:18 for CD
Michael McNabb / Computer Music (MFSL)

Used drive : LITE-ON DVDRW SOHW-1633S Adapter: 0 ID: 0
Read mode : Secure with NO C2, accurate stream, disable cache
Read offset correction : 12
Overread into Lead-In and Lead-Out : No

Used output format : Internal WAV Routines
44.100 Hz; 16 Bit; Stereo

Other options :
Fill up missing offset samples with silence : Yes
Delete leading and trailing silent blocks : No
Installed external ASPI interface

Track 1
Filename D:\FLAC\Michael McNabb - Computer Music (1983) [FLAC] (MFSL)\01 - Dreamsong.wav

Pre-gap length 0:00:02.00

Peak level 97.0 %
Track quality 100.0 %
Test CRC E7A43683
Copy CRC E7A43683
Copy OK

Track 2
Filename D:\FLAC\Michael McNabb - Computer Music (1983) [FLAC] (MFSL)\02 - Love In The Asylum.wav

Pre-gap length 0:00:20.00

Peak level 100.0 %
Track quality 99.9 %
Test CRC 5500E677
Copy CRC 5500E677
Copy OK

Track 3
Filename D:\FLAC\Michael McNabb - Computer Music (1983) [FLAC] (MFSL)\03 - Mars Suite.wav

Pre-gap length 0:00:15.33

Peak level 95.0 %
Track quality 100.0 %
Test CRC 8383C035
Copy CRC 8383C035
Copy OK
Download link:

Links are Interchangeable - No Password - Single Extraction



Site BBcode/HTML Code:
Dear visitor, you went to the site as unregistered user.
We recommend you Sign up or Login to website under your name.
Would you like to leave your comment? Please Login to your account to leave comments. Don't have an account? You can create a free account now.

Tag Cloud

archive of news

free html hit counter