» » Blondie - Blonde And Beyond (1993)
uploaded.to



Information of news
2-07-2015, 09:05

Blondie - Blonde And Beyond (1993)

Category: Music

Blondie - Blonde And Beyond (1993)

Blondie - Blonde And Beyond (1993)
EAC Secure Rip | FLAC (Image + Cue + Log) - 489 MB | Complete Scans (Jpeg 600 dpi) - 103 MB | MP3 (CBR320 Kbps) - 176 MB
New Wave, Punk Rock | Chrysalis Records, Inc. | 0946 3 21990 2 7 | 70:16 minutes | Hosted on: NitroFlare

Blonde and Beyond is a unique compilation that gathers some of the band's hit singles along with album tracks, single b-sides and previously unreleased recordings, which include three demos and a live covers.
"Most new wave bands tended to have short flashes of brilliance. Not Blondie. They were a great singles band, but they weren't limited to that -- they also made strong albums and, as the rarities collection Blonde & Beyond illustrates, they had a lot of terrific material that never made it on the official records. Like most odds-and-ends collections, Blonde & Beyond is a little scattershot, which is only appropriate for a compilation comprised of demos, B-sides, live tracks, and foreign-language versions of familiar hits. Still, the treasures make the digging worthwhile, since the keepers here -- including early versions of "Denis" and "X Offender," "Poets Problem," "Underground Girl," and a live version of "Bang a Gong (Get It On)" -- and rank among the group's very best efforts and are certainly worth the time of any true fan. Reviewed by Stephen Thomas Erlewine of allmusic.com"


Exact Audio Copy V1.0 beta 2 from 29. April 2011

EAC extraction logfile from 15. September 2014, 1:46

Blondie / Blonde And Beyond

Used drive : HL-DT-STBD-RE BH14NS40 Adapter: 0 ID: 2

Read mode : Secure
Utilize accurate stream : Yes
Defeat audio cache : Yes
Make use of C2 pointers : No

Read offset correction : 6
Overread into Lead-In and Lead-Out : No
Fill up missing offset samples with silence : Yes
Delete leading and trailing silent blocks : No
Null samples used in CRC calculations : Yes
Used interface : Native Win32 interface for Win NT & 2000

Used output format : User Defined Encoder
Selected bitrate : 1024 kBit/s
Quality : High
Add ID3 tag : No
Command line compressor : C:\Program Files (x86)\Exact Audio Copy\Flac\flac.exe
Additional command line options : -V -5 -T "artist=%albumartist%" -T "title=%title%" -T "album=%albumtitle%" -T "date=%year%" -T "genre=%genre%" -T "tracknumber=%tracknr%" %source%

TOC of the extracted CD

Track | Start | Length | Start sector | End sector
---------------------------------------------------------
1 | 0:00.00 | 3:52.70 | 0 | 17469
2 | 3:52.70 | 3:48.70 | 17470 | 34639
3 | 7:41.65 | 3:01.65 | 34640 | 48279
4 | 10:43.55 | 4:09.60 | 48280 | 67014
5 | 14:53.40 | 3:55.17 | 67015 | 84656
6 | 18:48.57 | 2:17.00 | 84657 | 94931
7 | 21:05.57 | 3:11.05 | 94932 | 109261
8 | 24:16.62 | 2:19.43 | 109262 | 119729
9 | 26:36.30 | 3:08.45 | 119730 | 133874
10 | 29:45.00 | 2:55.25 | 133875 | 147024
11 | 32:40.25 | 3:46.32 | 147025 | 164006
12 | 36:26.57 | 3:13.35 | 164007 | 178516
13 | 39:40.17 | 2:06.48 | 178517 | 188014
14 | 41:46.65 | 3:51.35 | 188015 | 205374
15 | 45:38.25 | 3:29.47 | 205375 | 221096
16 | 49:07.72 | 5:48.43 | 221097 | 247239
17 | 54:56.40 | 3:28.52 | 247240 | 262891
18 | 58:25.17 | 5:24.55 | 262892 | 287246
19 | 63:49.72 | 6:26.35 | 287247 | 316231

Range status and errors

Selected range

Filename C:\EAC\Blondie - (1993) Blonde And Beyond\Blondie - Blonde And Beyond.wav

Peak level 100.0 %
Extraction speed 6.9 X
Range quality 99.9 %
Test CRC 8CD14EC9
Copy CRC 8CD14EC9
Copy OK

No errors occurred


AccurateRip summary

Track 1 accurately ripped (confidence 9) [0B135377] (AR v2)
Track 2 accurately ripped (confidence 9) [73A0CE23] (AR v2)
Track 3 accurately ripped (confidence 10) [93703EB7] (AR v2)
Track 4 accurately ripped (confidence 10) [5FC050C7] (AR v2)
Track 5 accurately ripped (confidence 9) [20F1B4A3] (AR v2)
Track 6 accurately ripped (confidence 10) [682A1CAB] (AR v2)
Track 7 accurately ripped (confidence 9) [595A6BF2] (AR v2)
Track 8 accurately ripped (confidence 10) [2E1CAE47] (AR v2)
Track 9 accurately ripped (confidence 11) [D6D024E4] (AR v2)
Track 10 accurately ripped (confidence 9) [E77B1668] (AR v2)
Track 11 accurately ripped (confidence 10) [89053AAF] (AR v2)
Track 12 accurately ripped (confidence 11) [14044CBC] (AR v2)
Track 13 accurately ripped (confidence 10) [49BBB625] (AR v2)
Track 14 accurately ripped (confidence 9) [020D843C] (AR v2)
Track 15 accurately ripped (confidence 11) [596B693F] (AR v2)
Track 16 accurately ripped (confidence 11) [963B029F] (AR v2)
Track 17 accurately ripped (confidence 10) [682E53C5] (AR v2)
Track 18 accurately ripped (confidence 9) [4ABB2965] (AR v2)
Track 19 accurately ripped (confidence 11) [AF6ABB23] (AR v2)

All tracks accurately ripped

End of status report

==== Log checksum 43E12E4F90DA2431A3E94C7C4D45386D1332CDA8BE37FF322FFD01B79B034165 ====

Track Listing:

01. Underground Girl
Previously Unreleased Demo from Parallel Lines sessions, 1978
02. English Boys
From the album The Hunter, 1982
03. Sunday Girl (French Version)
From the UK 12" single "Sunday Girl", 1978
04. Susie And Jeffrey
B-side of "The Tide Is High" single, 1980
05. Shayla
From the album Eat to the Beat, 1979
06. Denis
From the album Plastic Letters, 1978
07. X Offender
From the album Blondie, 1977
08. Poets Problem
B-side to "(I'm Always Touched By Your) Presence, Dear" single, 1978
09. Scenery
Previously Unreleased Demo from Blondie sessions, 1976
10. Picture This
From the album Parallel Lines, 1978
11. Angels On The Balcony
From the album Autoamerican, 1980
12. Once I Had A Love
Previously Unreleased The early version of "Heart of Glass", 1976
13. I'm Gonna Love You Too
From the album Parallel Lines, 1978
14. Island Of Lost Souls
Original version appears on album The Hunter, 1982
15. Call Me (Spanish Version)
From the 12" single "Call Me", 1980
16. Heart Of Glass (Disco Version)
Original version appears on the album Parallel Lines, 1978
17. Ring Of Fire (Live)
From the soundtrack album "Roadie", 1980
18. Bang A Gong (Get It On) (Live)
Previously Unreleased Recorded live at The Paradise Club, Boston on November 4, 1978
19. Heroes (Live)
Recorded live at The Hammersmith Odeon on January 12, 1980. From the UK 12" single "Atomic", 1980

Blondie:

Deborah Harry - vocals
Chris Stein - guitar
Clem Burke - drums
Jimmy Destri - keyboards
Nigel Harrison - bass guitar
Frank Infante - guitar

Additional Musicians:

Robert Fripp - guitar (track 19)

CD Released: November 16, 1993

foobar2000 1.3.2 / Dynamic Range Meter 1.1.0
log date: 2015-06-28 19:22:17

--------------------------------------------------------------------------------
Analyzed: Blondie / Blonde And Beyond
--------------------------------------------------------------------------------

DR Peak RMS Duration Track
--------------------------------------------------------------------------------
DR10 -1.65 dB -14.27 dB 3:53 01-Underground Girl
DR11 -1.09 dB -13.99 dB 3:49 02-English Boys
DR10 -1.64 dB -14.39 dB 3:02 03-Sunday Girl (French Version)
DR11 -1.26 dB -14.55 dB 4:10 04-Susie And Jeffrey
DR10 -1.20 dB -14.18 dB 3:55 05-Shayla
DR11 -1.74 dB -14.54 dB 2:17 06-Denis
DR12 -1.64 dB -15.11 dB 3:11 07-X Offender
DR10 -2.46 dB -14.67 dB 2:20 08-Poets Problem
DR13 -1.72 dB -15.70 dB 3:09 09-Scenery
DR10 -2.78 dB -14.86 dB 2:55 10-Picture This
DR12 0.00 dB -14.26 dB 3:46 11-Angels On The Balcony
DR11 -1.54 dB -14.38 dB 3:13 12-Once I Had A Love
DR10 -2.68 dB -14.24 dB 2:07 13-I'm Gonna Love You Too
DR12 -1.13 dB -14.76 dB 3:51 14-Island Of Lost Souls
DR10 -2.68 dB -14.16 dB 3:30 15-Call Me (Spanish Version)
DR10 -1.46 dB -13.44 dB 5:49 16-Heart Of Glass (Disco Version)
DR12 -1.07 dB -14.86 dB 3:29 17-Ring Of Fire (Live)
DR12 -1.12 dB -15.48 dB 5:25 18-Bang A Gong (Get It On) (Live)
DR11 -0.58 dB -12.71 dB 6:26 19-Heroes (Live)
--------------------------------------------------------------------------------

Number of tracks: 19
Official DR value: DR11

Samplerate: 44100 Hz
Channels: 2
Bits per sample: 16
Bitrate: 926 kbps
Codec: FLAC
Download link:



Links are Interchangeable - No Password - Single Extraction

uploaded


Rapidgator.net

Site BBcode/HTML Code:
Dear visitor, you went to the site as unregistered user.
We recommend you Sign up or Login to website under your name.
Information
Would you like to leave your comment? Please Login to your account to leave comments. Don't have an account? You can create a free account now.

Tag Cloud

archive of news

^
 
free html hit counter