» » Kenny Werner - New York - Love Songs (2010) {OutNote}
uploaded.to



Information of news
5-07-2015, 12:19

Kenny Werner - New York - Love Songs (2010) {OutNote}

Category: Music


Kenny Werner - New York - Love Songs (2010) {OutNote}

Kenny Werner - New York - Love Songs (2010) {OutNote}
EAC 1.0b3 | FLAC tracks level 8 | Cue+Log+M3U | Full Scans 600dpi | 197MB + 5% Recovery
Genre: Jazz

"Kenny Werner improvised ballads that reflect his impressions of New York City for this 2009 solo piano session. The Brooklyn native's lyrical touch is present throughout this delightful recording, capturing the stillness of early morning in his moving "First Light/East River." Anyone who has visited the World Trade Center and since returned to view the starkly empty spot where it once stood can't help but be moved by Werner's poignant "Ground Zero," a piece conveying anguish at the terrible loss of life."

Track List
01. First Light / East River 6:58
02. Ground Zero 3:52
03. Song of the Heart (for Lorraine and Katheryn) 6:31
04. Scenes From Grand Central (for Bonnie) 6:24
05. Central Park Suite 13:39
06. Hudson Lament 4:17
07. Twilight / Riverside 5:01
08. Back Home Again (For Barbara and Wesley) 4:58

Kenny Werner - piano

Produced by Jean-Jacques Pussiau

Kenny Werner - New York - Love Songs (2010) {OutNote}

Exact Audio Copy V1.0 beta 3 from 29. August 2011

EAC extraction logfile from 8. May 2015, 7:05

Kenny Werner / New York - Love Songs

Used drive : PHILIPS SPD3400CC Adapter: 0 ID: 0

Read mode : Secure
Utilize accurate stream : Yes
Defeat audio cache : Yes
Make use of C2 pointers : No

Read offset correction : 6
Overread into Lead-In and Lead-Out : No
Fill up missing offset samples with silence : Yes
Delete leading and trailing silent blocks : No
Null samples used in CRC calculations : Yes
Used interface : Native Win32 interface for Win NT & 2000
Gap handling : Appended to previous track

Used output format : User Defined Encoder
Selected bitrate : 1024 kBit/s
Quality : High
Add ID3 tag : No
Command line compressor : C:\Program Files (x86)\Exact Audio Copy\FLAC\FLAC.EXE
Additional command line options : -8 -V -T "ARTIST=%artist%" -T "TITLE=%title%" -T "ALBUM=%albumtitle%" -T "DATE=%year%" -T "TRACKNUMBER=%tracknr%" -T "TOTALTRACKS=%numtracks%" -T "GENRE=%genre%" -T "ALBUM ARTIST=%albumartist%" -T "ALBUMARTIST=%albumartist%" -T "COMMENT=EAC V1.0 beta 3, Secure Mode, Test & Copy, AccurateRip, FLAC -8" %source%

TOC of the extracted CD

Track | Start | Length | Start sector | End sector
---------------------------------------------------------
1 | 0:00.00 | 6:58.45 | 0 | 31394
2 | 6:58.45 | 3:52.71 | 31395 | 48865
3 | 10:51.41 | 6:31.38 | 48866 | 78228
4 | 17:23.04 | 6:24.14 | 78229 | 107042
5 | 23:47.18 | 13:39.65 | 107043 | 168532
6 | 37:27.08 | 4:17.52 | 168533 | 187859
7 | 41:44.60 | 5:01.42 | 187860 | 210476
8 | 46:46.27 | 4:58.03 | 210477 | 232829

Track 1

Filename C:\Users\Maison\Downloads\Rips\01 - First Light, East River.wav

Pre-gap length 0:00:02.00

Peak level 97.1 %
Extraction speed 2.0 X
Track quality 100.0 %
Test CRC 5296E9E7
Copy CRC 5296E9E7
Accurately ripped (confidence 7) [E42FCF37] (AR v2)
Copy OK

Track 2

Filename C:\Users\Maison\Downloads\Rips\02 - Ground Zero.wav

Peak level 97.1 %
Extraction speed 2.1 X
Track quality 100.0 %
Test CRC 29BA688F
Copy CRC 29BA688F
Accurately ripped (confidence 7) [D6A1F8AF] (AR v2)
Copy OK

Track 3

Filename C:\Users\Maison\Downloads\Rips\03 - Song of the Heart (for Lorraine and Katheryn).wav

Peak level 96.8 %
Extraction speed 2.5 X
Track quality 100.0 %
Test CRC 1B13C26F
Copy CRC 1B13C26F
Accurately ripped (confidence 7) [257205FF] (AR v2)
Copy OK

Track 4

Filename C:\Users\Maison\Downloads\Rips\04 - Scenes from Grand Central (for Bonnie).wav

Peak level 97.6 %
Extraction speed 2.7 X
Track quality 100.0 %
Test CRC 7CBF15B9
Copy CRC 7CBF15B9
Accurately ripped (confidence 7) [03875210] (AR v2)
Copy OK

Track 5

Filename C:\Users\Maison\Downloads\Rips\05 - Central Park Suite.wav

Peak level 97.5 %
Extraction speed 3.2 X
Track quality 100.0 %
Test CRC 990056E0
Copy CRC 990056E0
Accurately ripped (confidence 7) [57AB4C2F] (AR v2)
Copy OK

Track 6

Filename C:\Users\Maison\Downloads\Rips\06 - Hudson Lament.wav

Peak level 97.6 %
Extraction speed 3.2 X
Track quality 100.0 %
Test CRC A37F05C2
Copy CRC A37F05C2
Accurately ripped (confidence 7) [6F24A135] (AR v2)
Copy OK

Track 7

Filename C:\Users\Maison\Downloads\Rips\07 - Twilight, Riverside.wav

Peak level 98.1 %
Extraction speed 3.4 X
Track quality 100.0 %
Test CRC C8B2650F
Copy CRC C8B2650F
Accurately ripped (confidence 7) [D5200C8B] (AR v2)
Copy OK

Track 8

Filename C:\Users\Maison\Downloads\Rips\08 - Back Home Again (for Barbara and Wesley).wav

Peak level 97.5 %
Extraction speed 3.5 X
Track quality 100.0 %
Test CRC 9887F79B
Copy CRC 9887F79B
Accurately ripped (confidence 7) [675825F7] (AR v2)
Copy OK

All tracks accurately ripped

No errors occurred

End of status report

==== Log checksum C75184B9BBD3C1BDF8EA5946F34A89F9CBC498C58A86D0909040F2B2B23AF30D ====


--------------------------------------------------------------------------------
Analyzed: Kenny Werner / New York - Love Songs
--------------------------------------------------------------------------------

DR Peak RMS Duration Track
--------------------------------------------------------------------------------
DR13 -0.25 dB -18.23 dB 6:59 01-First Light/East River
DR15 -0.25 dB -19.90 dB 3:53 02-Ground Zero
DR13 -0.28 dB -19.01 dB 6:32 03-Song of the Heart (for Lorraine and Katheryn)
DR10 -0.20 dB -14.44 dB 6:24 04-Scenes from Grand Central (for Bonnie)
DR13 -0.21 dB -18.36 dB 13:40 05-Central Park Suite
DR12 -0.21 dB -17.26 dB 4:18 06-Hudson Lament
DR10 -0.16 dB -14.77 dB 5:02 07-Twilight/Riverside
DR10 -0.21 dB -14.55 dB 4:58 08-Back Home Again (for Barbara and Wesley)
--------------------------------------------------------------------------------

Number of tracks: 8
Official DR value: DR12

Samplerate: 44100 Hz
Channels: 2
Bits per sample: 16
Bitrate: 483 kbps
Codec: FLAC
================================================================================


Kenny Werner - New York - Love Songs (2010) {OutNote}


Kenny Werner - New York - Love Songs (2010) {OutNote}


Kenny Werner - New York - Love Songs (2010) {OutNote}

Download link:

Buy Premium To Support Me & Get Resumable Support & Max Speed:



Links are Interchangeable - No Password - Single Extraction

uploaded


Rapidgator.net

Site BBcode/HTML Code:
Dear visitor, you went to the site as unregistered user.
We recommend you Sign up or Login to website under your name.
Information
Would you like to leave your comment? Please Login to your account to leave comments. Don't have an account? You can create a free account now.

Tag Cloud

archive of news

^
 
free html hit counter