» » Funkadelic - Uncle Jam Wants You (1979)
uploaded.to



Information of news
12-07-2015, 08:31

Funkadelic - Uncle Jam Wants You (1979)

Category: Music

Funkadelic - Uncle Jam Wants You (1979)

Funkadelic - Uncle Jam Wants You (1979)
Funk | 1cd | EAC Rip | Flac + Cue + Log | covers
Priority P2 53875 | rel: 1993 | 330Mb

Almost as if Clinton and company wanted to atone for parts of One Nation Under a Groove, Uncle Jam Wants You takes not merely a more daring musical approach but a more forthright political stance. The cover art alone is brilliant, front and back showing Clinton in Huey P. Newton's famous Black Panther pose. The main goal is the cover subtitle's stated claim to "rescue dance music 'from the blahs,'" and "Uncle Jam" itself does a pretty funny job at doing that, starting out like a parody of patriotic recruitment ads before hitting its full, funky stride.
It's still very much a disco effort, but one overtly spiking the brew even more than before with P-Funk's own particular recipe, mock drill instructors calling out dance commands and so forth. The absolute winner and most famous track, without question, is the 15-minute deep groove of "(Not Just) Knee Deep." It'd be legend alone for being the musical basis for De La Soul's astonishing breakthrough a decade later with "Me, Myself and I," but on its own it predates the mutation of disco into electro thanks to the stiff beat and Worrell's crazy keyboards. Elsewhere there are pleasant enough jams like "Field Maneuvers," kicking around some good guitar work amidst the hop-and-skip beat, and the weepy ballad "Holly Wants to Go to California," intentionally undercut by all the cheering and noise deep in the mix. It's not to say that Funkadelic hasn't left the entire world of coke spoons and pointing to the sky behind them, as "Freak of the Week" shows, which isn't entirely far off from the early Sugar Hill party/zodiac aesthetic. Then again, lines like "disco-sadistic, that one beat up and down, it just won't do" amidst the whistles and screams have their own impact. ~Allmusic

Track listing
01. Freak Of The Week (5:33)
02. (Not Just) Knee Deep (15:21)
03. Uncle Jam (10:26)
04. Field Maneuvers (2:26)
05. Holly Wants To Go To California (4:26)
06. Foot Soldiers (Star-Spangled Funky) (3:33)
~ (41:45)

Exact Audio Copy V0.99 prebeta 3 from 28. July 2007

EAC extraction logfile from 14. August 2008, 12:35

Funkadelic / Uncle Jam Wants You

Used drive : ASUS DRW-1814BL Adapter: 0 ID: 1

Read mode : Secure
Utilize accurate stream : Yes
Defeat audio cache : Yes
Make use of C2 pointers : No

Read offset correction : 6
Overread into Lead-In and Lead-Out : No
Fill up missing offset samples with silence : Yes
Delete leading and trailing silent blocks : No
Null samples used in CRC calculations : Yes
Used interface : Installed external ASPI interface

Used output format : Internal WAV Routines
Sample format : 44.100 Hz; 16 Bit; Stereo

TOC of the extracted CD

Track | Start | Length | Start sector | End sector
---------------------------------------------------------
1 | 0:00.00 | 5:33.30 | 0 | 25004
2 | 5:33.30 | 15:20.72 | 25005 | 94076
3 | 20:54.27 | 10:25.58 | 94077 | 141009
4 | 31:20.10 | 2:26.32 | 141010 | 151991
5 | 33:46.42 | 4:25.50 | 151992 | 171916
6 | 38:12.17 | 3:32.73 | 171917 | 187889

Range status and errors

Selected range

Filename E:\ape\!torrent\release\flac\Funkadelic 1979 Uncle Jam Wants You (1993 remastered)\CDImage.wav

Peak level 94.6 %
Range quality 100.0 %
Copy CRC 31FD7FB1
Copy OK

No errors occurred


AccurateRip summary

Track 1 accurately ripped (confidence 3) [97F42A5D]
Track 2 accurately ripped (confidence 3) [0B81D859]
Track 3 accurately ripped (confidence 3) [E179817D]
Track 4 accurately ripped (confidence 3) [9DAAF2C1]
Track 5 accurately ripped (confidence 3) [711DF807]
Track 6 accurately ripped (confidence 3) [D5105248]

All tracks accurately ripped

End of status report


[CUETools log; Date: 2015.07.04. 13:02:08; Version: 2.1.5]
[CTDB TOCID: 8l_xTB_HWaPjJzcCOKaN6OIPVww-] found.
Track | CTDB Status
1 | (7/8) Accurately ripped
2 | (7/8) Accurately ripped
3 | (7/8) Accurately ripped
4 | (7/8) Accurately ripped
5 | (7/8) Accurately ripped
6 | (7/8) Accurately ripped
[AccurateRip ID: 000bc733-003d149e-4b09c906] found.
Track [ CRC | V2 ] Status
01 [97f42a5d|9882d21d] (06+10/16) Accurately ripped
02 [0b81d859|85e36b96] (07+12/19) Accurately ripped
03 [e179817d|1cc50fd3] (06+10/16) Accurately ripped
04 [9daaf2c1|1068ad38] (06+11/17) Accurately ripped
05 [711df807|43bf7e68] (06+11/17) Accurately ripped
06 [d5105248|f474c2b9] (06+11/17) Accurately ripped

Track Peak [ CRC32 ] [W/O NULL] [ LOG ]
-- 94,6 [31FD7FB1] 9341139 CRC32
01 94,6 [469A6DB8] [79B7B7F7]
02 94,6 [F37DE5D2] F4B0039
03 94,6 [83F62B44] [9A3C66D6]
04 94,6 [2F18192F] [E4965A3E]
05 94,6 [A5772F1F] [1803855F]
06 94,6 [660B1EF7] [8B3DF3B3]

Thx to bigfoothart

password: asd
Download link:



Links are Interchangeable - No Password - Single Extraction

uploaded


Rapidgator.net

Site BBcode/HTML Code:
Dear visitor, you went to the site as unregistered user.
We recommend you Sign up or Login to website under your name.
Information
Would you like to leave your comment? Please Login to your account to leave comments. Don't have an account? You can create a free account now.

Tag Cloud

archive of news

^
 
free html hit counter