» » Yes - Big Generator (1987) [Japan, 1st Press] ReUpload
uploaded.to



Information of news
12-07-2015, 09:03

Yes - Big Generator (1987) [Japan, 1st Press] ReUpload

Category: Music

Yes - Big Generator (1987) [Japan, 1st Press] ReUpload

Yes - Big Generator (1987)
[Japan, 1st Press]

EAC: ape (image) + cue + log | RAR, 3%, 248,69 MB
mp3, 320 kbps | RAR, 3%, 102,38 MB | Full Scans, 300/600 dpi | RAR, 3%, 60,91/248,34 MB
Label: Warner-Pioneer Corporation | Cat №: 32XD-559

""Big Generator" is the twelfth studio album by progressive rock band Yes. It was released in 1987 on Atlantic Records' Atco subsidiary label (Yes' last studio album for Atlantic) and was the follow-up to the massively successful "90125" album."

A laborious album to make, Big Generator's sessions dragged on for two years, largely due to creative differences. Guitarist Trevor Rabin was aiming to progress beyond "90125", while founding lead vocalist Jon Anderson was beginning to yearn for more traditional Yes music.
The result was an album that was successful commercially, with two songs reaching the US Top 40: "Love Will Find a Way" (also a #1 on the Mainstream Rock chart) and "Rhythm of Love" (their last US Top 40 hit)."

Exact Audio Copy V1.0 beta 1 from 15. November 2010

EAC extraction logfile from 5. April 2011, 22:21

Yes / Big Generator

Used drive : TEAC CD-W552E Adapter: 1 ID: 1

Read mode : Secure
Utilize accurate stream : Yes
Defeat audio cache : Yes
Make use of C2 pointers : No

Read offset correction : 6
Overread into Lead-In and Lead-Out : No
Fill up missing offset samples with silence : Yes
Delete leading and trailing silent blocks : No
Null samples used in CRC calculations : Yes
Used interface : Installed external ASPI interface

Used output format : Internal WAV Routines
Sample format : 44.100 Hz; 16 Bit; Stereo

TOC of the extracted CD

Track | Start | Length | Start sector | End sector
---------------------------------------------------------
1 | 0:00.00 | 4:49.15 | 0 | 21689
2 | 4:49.15 | 4:33.22 | 21690 | 42186
3 | 9:22.37 | 7:03.43 | 42187 | 73954
4 | 16:26.05 | 5:00.72 | 73955 | 96526
5 | 21:27.02 | 4:50.13 | 96527 | 118289
6 | 26:17.15 | 6:26.15 | 118290 | 147254
7 | 32:43.30 | 7:37.67 | 147255 | 181596
8 | 40:21.22 | 3:19.50 | 181597 | 196571

Range status and errors

Selected range

Filename Q:\Yes - 1987 - Big Generator (Warner-Pioneer Corporation, 32XD-559)\Yes - Big Generator.wav

Peak level 100.0 %
Extraction speed 0.2 X
Range quality 100.0 %
Test CRC B6EAEF56
Copy CRC B6EAEF56
Copy OK

No errors occurred


AccurateRip summary

Track 1 not present in database
Track 2 not present in database
Track 3 not present in database
Track 4 not present in database
Track 5 not present in database
Track 6 not present in database
Track 7 not present in database
Track 8 not present in database

None of the tracks are present in the AccurateRip database

End of status report

Tracklist:
01. Rhythm Of Love [04:49]
02. Big Generator [04:33]
03. Shoot High Aim Low [07:03]
04. Almost Like Love [05:00]
05. Love Will Find A Way [04:50]
06. Final Eyes [06:26]
07. I'm Running [07:37]
08. Holy Lamb [03:19]

pass: kermith
Download link:



Links are Interchangeable - No Password - Single Extraction

uploaded


Rapidgator.net

Site BBcode/HTML Code:
Dear visitor, you went to the site as unregistered user.
We recommend you Sign up or Login to website under your name.
Information
Would you like to leave your comment? Please Login to your account to leave comments. Don't have an account? You can create a free account now.

Tag Cloud

archive of news

^
 
free html hit counter