» » Alphaville - The Singles Collection (1988) ReUpload
uploaded.to



Information of news
12-07-2015, 11:47

Alphaville - The Singles Collection (1988) ReUpload

Category: Music

Alphaville - The Singles Collection (1988) ReUpload

Alphaville - The Singles Collection (1988)
EAC: ape (image) + cue + log | RAR, 3%, 279,08 MB
mp3 320 kbps | RAR, 3%, 107,81 MB | Full scans | RAR, 3%, 20,87 MB
Label: WEA Music GmbH | Cat №: CD 44054

"Alphaville is a German synthpop group which gained popularity in the 1980s. The founding members were Marian Gold (real name Hartwig Schierbaum, born 26 May 1954 in Herford, North Rhine-Westphalia), Bernhard Lloyd (real name Bernhard Gößling, born 6 June 1960 in Enger, North Rhine-Westphalia), and Frank Mertens (real name Frank Sorgatz, born 26 October 1961 in Enger, North Rhine-Westphalia). The band was at first named Forever Young before changing to Alphaville. They are best known for their two biggest hits, "Big in Japan" and "Forever Young"."

Exact Audio Copy V1.0 beta 1 from 15. November 2010

EAC extraction logfile from 12. March 2011, 18:26

Alphaville / The Singles Collection

Used drive : TSSTcorpCDDVDW SH-S222A Adapter: 1 ID: 0

Read mode : Secure
Utilize accurate stream : Yes
Defeat audio cache : Yes
Make use of C2 pointers : No

Read offset correction : 6
Overread into Lead-In and Lead-Out : No
Fill up missing offset samples with silence : Yes
Delete leading and trailing silent blocks : No
Null samples used in CRC calculations : Yes
Used interface : Installed external ASPI interface

Used output format : Internal WAV Routines
Sample format : 44.100 Hz; 16 Bit; Stereo

TOC of the extracted CD

Track | Start | Length | Start sector | End sector
---------------------------------------------------------
1 | 0:00.32 | 6:10.50 | 32 | 27831
2 | 6:11.07 | 4:27.20 | 27832 | 47876
3 | 10:38.27 | 3:52.05 | 47877 | 65281
4 | 14:30.32 | 8:16.60 | 65282 | 102541
5 | 22:47.17 | 3:46.68 | 102542 | 119559
6 | 26:34.10 | 7:54.67 | 119560 | 155176
7 | 34:29.02 | 7:00.18 | 155177 | 186694
8 | 41:29.20 | 3:57.65 | 186695 | 204534

Range status and errors

Selected range

Filename Q:\Alphaville - 1988 - The Singles Collection (WEA, CD 44054)\Alphaville - The Singles

Collection.wav

Peak level 100.0 %
Extraction speed 0.6 X
Range quality 100.0 %
Test CRC 8AC8D3EB
Copy CRC 8AC8D3EB
Copy OK

No errors occurred


AccurateRip summary

Track 1 accurately ripped (confidence 4) [41AFB5AD]
Track 2 accurately ripped (confidence 3) [24B381BA]
Track 3 accurately ripped (confidence 3) C48EE9E
Track 4 accurately ripped (confidence 4) [03567C72]
Track 5 accurately ripped (confidence 3) [8E652E20]
Track 6 accurately ripped (confidence 4) [FC5E9E72]
Track 7 accurately ripped (confidence 4) [20AC631D]
Track 8 accurately ripped (confidence 3) [443C66F3]

All tracks accurately ripped

End of status report

Tracklist:
01. Forever Young (Special Extended Mix) [06:10]
02. Red Rose (Single Version '88) [04:27]
03. Big In Japan (Single Version '88) [03:52]
04. Dance With Me (Long Version) [08:16]
05. Forever Young (Album Version) [03:46]
06. Red Rose (12'' Mix) [07:54]
07. Big In Japan (Remix '88) [07:00]
08. Dance With Me (Album Version) [03:57]

pass: kermith
Download link:



Links are Interchangeable - No Password - Single Extraction

uploaded


Rapidgator.net

Site BBcode/HTML Code:
Dear visitor, you went to the site as unregistered user.
We recommend you Sign up or Login to website under your name.
Information
Would you like to leave your comment? Please Login to your account to leave comments. Don't have an account? You can create a free account now.

Tag Cloud

archive of news

^
 
free html hit counter