» » Sonny Boy Williamson - In Europe (1995)
uploaded.to



Information of news
12-07-2015, 12:24

Sonny Boy Williamson - In Europe (1995)

Category: Music

Sonny Boy Williamson - In Europe (1995)

Sonny Boy Williamson - In Europe (1995)
EAC | Flac(Image) + Cue + Log & MP3 CBR 320Kbps
Evidence Music, ECD 26071-2 | ~ 336 or 151 Mb | Scans Included
Blues / Chicago Blues / Harmonica Blues

"More highlights from Sonny Boy Williamson's overseas travels, in a wide variety of settings -- during the 1963 and 1964 American Folk Blues Festivals with old friends like Willie Dixon, Sunnyland Slim, Hubert Sumlin and Matt Murphy behind him, and for nine tracks, with the Yardbirds in support..."

The latter combination works pretty well -- Clapton and company offer reverent, laidback rhythms that seldom intrude and often mesh nicely.

Tracklist:

01. I'm Trying To Make London My Home 04:14
02. I Don't Know 04:50
03. Sonny Boy's Harmonica Blues 02:55
04. Had My Fun 03:50
05. Dissatisfied 04:26
06. Bye Bye Bird 03:40
07. Mister Downchild 03:54
08. Hours Too Long 05:07
09. Pontiac Blues 03:49
10. Take It Easy Baby (Version One) 05:41
11. Out On The Water Coast 03:07
12. I Don't Care No More 03:43
13. Do The Weston 03:01
14. Take It Easy Baby (Version Two) 04:13

Recording date October 13, 1963 - October 9, 1964

Exact Audio Copy V1.0 beta 3 from 29. August 2011

EAC extraction logfile from 17. January 2013, 13:42

Sonny Boy Williamson / Sonny Boy Williamson in Europe

Used drive : HL-DT-STBDDVDRW GBC-H20N Adapter: 1 ID: 0

Read mode : Secure
Utilize accurate stream : Yes
Defeat audio cache : Yes
Make use of C2 pointers : No

Read offset correction : 667
Overread into Lead-In and Lead-Out : No
Fill up missing offset samples with silence : Yes
Delete leading and trailing silent blocks : No
Null samples used in CRC calculations : Yes
Used interface : Native Win32 interface for Win NT & 2000

Used output format : User Defined Encoder
Selected bitrate : 1024 kBit/s
Quality : High
Add ID3 tag : No
Command line compressor : C:\Program Files\Exact Audio Copy\wavpack.exe
Additional command line options : -hm %source% %dest%

TOC of the extracted CD

Track | Start | Length | Start sector | End sector
---------------------------------------------------------
1 | 0:00.00 | 4:13.65 | 0 | 19039
2 | 4:13.65 | 4:49.67 | 19040 | 40781
3 | 9:03.57 | 2:54.38 | 40782 | 53869
4 | 11:58.20 | 3:50.02 | 53870 | 71121
5 | 15:48.22 | 4:26.35 | 71122 | 91106
6 | 20:14.57 | 3:39.60 | 91107 | 107591
7 | 23:54.42 | 3:53.53 | 107592 | 125119
8 | 27:48.20 | 5:06.57 | 125120 | 148126
9 | 32:55.02 | 3:48.45 | 148127 | 165271
10 | 36:43.47 | 5:41.20 | 165272 | 190866
11 | 42:24.67 | 3:07.23 | 190867 | 204914
12 | 45:32.15 | 3:43.00 | 204915 | 221639
13 | 49:15.15 | 3:00.40 | 221640 | 235179
14 | 52:15.55 | 4:12.52 | 235180 | 254131

Range status and errors

Selected range

Filename C:\Users\ProgDog\Music\ZALIVKI\BLUES\Sonny Boy Williamson (II)\1995 - In Europe\Sonny Boy Williamson - Sonny Boy Williamson in Europe.wav

Peak level 99.8 %
Extraction speed 6.2 X
Range quality 99.9 %
Test CRC 128672FF
Copy CRC 128672FF
Copy OK

No errors occurred


AccurateRip summary

Track 1 accurately ripped (confidence 2) [842D331C] (AR v1)
Track 2 accurately ripped (confidence 2) [319371C3] (AR v1)
Track 3 accurately ripped (confidence 2) [3252FB40] (AR v1)
Track 4 accurately ripped (confidence 2) [10952328] (AR v1)
Track 5 accurately ripped (confidence 2) [71D80A53] (AR v1)
Track 6 accurately ripped (confidence 2) [DD2F29FF] (AR v1)
Track 7 accurately ripped (confidence 2) [47FA8479] (AR v1)
Track 8 accurately ripped (confidence 2) [76E27171] (AR v1)
Track 9 accurately ripped (confidence 2) [D5BB28D6] (AR v1)
Track 10 accurately ripped (confidence 2) [80496E54] (AR v1)
Track 11 accurately ripped (confidence 2) [79203F8A] (AR v1)
Track 12 accurately ripped (confidence 2) [D7296EDD] (AR v1)
Track 13 accurately ripped (confidence 2) [9C1C21DE] (AR v1)
Track 14 accurately ripped (confidence 2) [52B64CFD] (AR v1)

All tracks accurately ripped

End of status report

---- CUETools DB Plugin V2.1.3

[CTDB TOCID: afIIlEgUIpsQzk0ZdymVlMT86xc-] found, Submit result: afIIlEgUIpsQzk0ZdymVlMT86xc- has been confirmed
[f4920ba2] (2/2) Accurately ripped


foobar2000 1.2.9 / Dynamic Range Meter 1.1.1
log date: 2015-07-11 19:37:28

--------------------------------------------------------------------------------
Analyzed: Sonny Boy Williamson / Sonny Boy Williamson in Europe
--------------------------------------------------------------------------------

DR Peak RMS Duration Track
--------------------------------------------------------------------------------
DR10 -3.53 dB -16.54 dB 4:14 01-I'm Trying To Make London My Home
DR10 -3.32 dB -15.89 dB 4:50 02-I Don't Know
DR12 -3.65 dB -19.48 dB 2:55 03-Sonny Boy's Harmonica Blues
DR11 -2.72 dB -17.10 dB 3:50 04-Had My Fun
DR10 -3.35 dB -15.46 dB 4:26 05-Dissatisfied
DR16 -0.32 dB -20.99 dB 3:40 06-Bye Bye Bird
DR13 -1.35 dB -18.63 dB 3:54 07-Mister Downchild
DR14 -0.95 dB -21.34 dB 5:07 08-23 Hours Too Long
DR12 -0.01 dB -14.66 dB 3:49 09-Pontiac Blues
DR14 -0.77 dB -19.90 dB 5:41 10-Take It Easy Baby [Version 1]
DR17 -0.39 dB -21.09 dB 3:07 11-Out On The Water Coast
DR13 -1.92 dB -20.21 dB 3:43 12-I Don't Care No More
DR13 -2.48 dB -18.87 dB 3:01 13-Do The Weston
DR11 -3.00 dB -16.93 dB 4:13 14-Take It Easy Baby [Version 2]
--------------------------------------------------------------------------------

Number of tracks: 14
Official DR value: DR13

Samplerate: 44100 Hz
Channels: 2
Bits per sample: 16
Bitrate: 765 kbps
Codec: FLAC

[CUETools log; Date: 11.07.2015 19:37:16; Version: 2.1.4]
[CTDB TOCID: afIIlEgUIpsQzk0ZdymVlMT86xc-] found.
Track | CTDB Status
1 | (5/5) Accurately ripped
2 | (5/5) Accurately ripped
3 | (5/5) Accurately ripped
4 | (5/5) Accurately ripped
5 | (5/5) Accurately ripped
6 | (5/5) Accurately ripped
7 | (5/5) Accurately ripped
8 | (5/5) Accurately ripped
9 | (5/5) Accurately ripped
10 | (5/5) Accurately ripped
11 | (5/5) Accurately ripped
12 | (5/5) Accurately ripped
13 | (5/5) Accurately ripped
14 | (5/5) Accurately ripped
[AccurateRip ID: 001d6e3e-0139c21f-c00d3c0e] found.
Track [ CRC | V2 ] Status
01 [842d331c|c3177af0] (2+0/6) Accurately ripped
02 [319371c3|3ca2cf7f] (2+0/6) Accurately ripped
03 [3252fb40|e4241a92] (2+0/6) Accurately ripped
04 [10952328|14677272] (2+0/6) Accurately ripped
05 [71d80a53|34a99b4b] (2+0/6) Accurately ripped
06 [dd2f29ff|8adb10c5] (2+0/4) Accurately ripped
07 [47fa8479|18377333] (2+0/6) Accurately ripped
08 [76e27171|3564b879] (2+0/6) Accurately ripped
09 [d5bb28d6|d80b423f] (2+0/6) Accurately ripped
10 [80496e54|20c887be] (2+0/6) Accurately ripped
11 [79203f8a|43b6e9c9] (2+0/6) Accurately ripped
12 [d7296edd|22debdd3] (2+0/6) Accurately ripped
13 [9c1c21de|393070aa] (2+0/6) Accurately ripped
14 [52b64cfd|51ee907f] (2+0/6) Accurately ripped
Offsetted by 210:
01 [96a0541f] (2/6) Accurately ripped
02 [f3b44535] (2/6) Accurately ripped
03 [7c8c4d41] (2/6) Accurately ripped
04 [e0bdcd85] (2/6) Accurately ripped
05 5d16604 (2/6) Accurately ripped
06 [80040007] (0/4) No match (V2 was not tested)
07 [505f56d2] (2/6) Accurately ripped
08 [d893d5f4] (2/6) Accurately ripped
09 [2f756e2e] (2/6) Accurately ripped
10 [a6774a38] (2/6) Accurately ripped
11 [22bad49b] (2/6) Accurately ripped
12 [823d8a1c] (2/6) Accurately ripped
13 ca7162c (2/6) Accurately ripped
14 [344553a9] (2/6) Accurately ripped
Offsetted by 236:
01 [17754691] (0/6) No match (V2 was not tested)
02 [5917215c] (0/6) No match (V2 was not tested)
03 [30bcc68f] (0/6) No match (V2 was not tested)
04 [d483d7ec] (0/6) No match (V2 was not tested)
05 [6f1139b2] (0/6) No match (V2 was not tested)
06 [38baafa7] (0/4) No match (V2 was not tested)
07 [8e656ec5] (0/6) No match (V2 was not tested)
08 [a2b4ba21] (0/6) No match (V2 was not tested)
09 [fede3558] (0/6) No match (V2 was not tested)
10 [7972939c] (0/6) No match (V2 was not tested)
11 [874e2640] (0/6) No match (V2 was not tested)
12 [1d1f94ec] (0/6) No match (V2 was not tested)
13 [c43a1c45] (0/6) No match (V2 was not tested)
14 [1d346043] (0/6) No match (V2 was not tested)

Track Peak [ CRC32 ] [W/O NULL] [ LOG ]
-- 99,8 [128672FF] [CD3EFC4A] CRC32
01 66,6 [8F521CB4] 08F033E
02 68,2 [8FA86B9B] [7E3FDAA5]
03 65,7 [9D19AF10] [E5BBC098]
04 73,0 [C915496B] [A88FADE5]
05 68,0 [131261A6] [F0CD9699]
06 96,3 [A5425576] [6B2246A4]
07 85,5 [F85F622A] [3EAB78F2]
08 89,6 [13CB7AB0] [1924BF82]
09 99,8 [89F66C22] [878B1A4D]
10 91,5 [6C42677F] 0C4E172
11 95,6 [7F2B3F56] [574D304F]
12 80,1 [7FDC06DB] [764124A8]
13 75,1 [325DAC4A] [C04273BB]
14 70,8 [757971ED] [CE3994E9]
Download link:



Links are Interchangeable - No Password - Single Extraction

uploaded


Rapidgator.net

Site BBcode/HTML Code:
Dear visitor, you went to the site as unregistered user.
We recommend you Sign up or Login to website under your name.
Information
Would you like to leave your comment? Please Login to your account to leave comments. Don't have an account? You can create a free account now.

Tag Cloud

archive of news

^
 
free html hit counter