» » Various Artists - Java: Sundanese Folk Music (1994)
uploaded.to



Information of news
12-07-2015, 12:54

Various Artists - Java: Sundanese Folk Music (1994)

Category: Music

Various Artists - Java: Sundanese Folk Music (1994)

Various Artists - Java: Sundanese Folk Music (1994)
World/Ethnic | FLAC lossless | cuesheets+log | covers+booklet | 44m59s | 216mb
Label: Auvidis/Unesco | cat. no. D 8051

"The Indonesian island Java is the most populous island in the world, and the Sundanese, who live in the western part of Java, are the second most populous of Indonesia's communities. Sunda was once a separate kingdom, and in many ways the Sundanese are culturally distinct from their neighbors. For example, they use many of the same musical instruments, but Sundanese compositions and tuning systems are recognizably different. Jacques Brunet, who has recorded gamelan music throughout Southeast Asia, provides an in-depth explanation in the liner notes.
Popular styles of Sundanese folk music are varied, and this compilation showcases several ensembles such as the soothing kacapi suling with plucked zither and bamboo flute often played in the home, and the aggressive pencak silat martial arts demonstration preceding a match."


Tracks:

01. Angklung Buhun [0:05:48.66]
02. Recak [0:06:37.66]
03. Kacapi Suling [0:10:15.82]
04. Ketuk Tilu [0:09:39.17]
05. Tarawangsa [0:07:19.26]
06. Pencak - Wrestling music [0:05:21.53]

Performers:

Various Artists; see back cover

Exact Audio Copy V1.0 beta 3 from 29. August 2011

EAC extraction logfile from 11. July 2015, 18:32

Unesco, Auvidis / Java - Sundanese Folk Music

Used drive : TSSTcorpCDDVDW SH-216AB Adapter: 0 ID: 0

Read mode : Secure
Utilize accurate stream : Yes
Defeat audio cache : Yes
Make use of C2 pointers : No

Read offset correction : 6
Overread into Lead-In and Lead-Out : No
Fill up missing offset samples with silence : Yes
Delete leading and trailing silent blocks : No
Null samples used in CRC calculations : Yes
Used interface : Native Win32 interface for Win NT & 2000
Gap handling : Appended to previous track

Used output format : User Defined Encoder
Selected bitrate : 768 kBit/s
Quality : High
Add ID3 tag : No
Command line compressor : C:\Program Files (x86)\FLAC Frontend\tools\flac.exe
Additional command line options : -8 -V -T "ARTIST=%artist%" -T "TITLE=%title%" -T "ALBUM=%albumtitle%" -T "DATE=%year%" -T "TRACKNUMBER=%tracknr%" -T "GENRE=%genre%" -T "PERFORMER=%albuminterpret%" -T "COMPOSER=%composer%" %haslyrics%--tag-from-file=LYRICS="%lyricsfile%"%haslyrics% -T "ALBUMARTIST=%albumartist%" -T "DISCNUMBER=%cdnumber%" -T "TOTALDISCS=%totalcds%" -T "TOTALTRACKS=%numtracks%" -T "COMMENT=%comment%" %source% -o %dest%

TOC of the extracted CD

Track | Start | Length | Start sector | End sector
---------------------------------------------------------
1 | 0:00.33 | 5:48.50 | 33 | 26182
2 | 5:49.08 | 6:37.50 | 26183 | 56007
3 | 12:26.58 | 10:15.62 | 56008 | 102194
4 | 22:42.45 | 9:39.13 | 102195 | 145632
5 | 32:21.58 | 7:19.20 | 145633 | 178577
6 | 39:41.03 | 5:21.40 | 178578 | 202692

Track 1

Filename C:\Users\Severin\Music\ALTERNATIVE\Various Artists - Java - Sundanese Folk Music\01 Angklung Buhun.wav

Pre-gap length 0:00:02.44

Peak level 67.6 %
Extraction speed 1.8 X
Track quality 100.0 %
Copy CRC D5D5F15C
Track not present in AccurateRip database
Copy OK

Track 2

Filename C:\Users\Severin\Music\ALTERNATIVE\Various Artists - Java - Sundanese Folk Music\02 Recak.wav

Pre-gap length 0:00:05.66

Peak level 88.1 %
Extraction speed 2.2 X
Track quality 100.0 %
Copy CRC 00AA0950
Track not present in AccurateRip database
Copy OK

Track 3

Filename C:\Users\Severin\Music\ALTERNATIVE\Various Artists - Java - Sundanese Folk Music\03 Kacapi Suling.wav

Pre-gap length 0:00:06.46

Peak level 72.1 %
Extraction speed 2.5 X
Track quality 99.9 %
Copy CRC 88066580
Track not present in AccurateRip database
Copy OK

Track 4

Filename C:\Users\Severin\Music\ALTERNATIVE\Various Artists - Java - Sundanese Folk Music\04 Ketuk Tilu.wav

Pre-gap length 0:00:05.53

Peak level 99.6 %
Extraction speed 2.9 X
Track quality 100.0 %
Copy CRC 06EDC923
Track not present in AccurateRip database
Copy OK

Track 5

Filename C:\Users\Severin\Music\ALTERNATIVE\Various Artists - Java - Sundanese Folk Music\05 Tarawangsa.wav

Pre-gap length 0:00:04.80

Peak level 53.7 %
Extraction speed 3.2 X
Track quality 100.0 %
Copy CRC 2FBA8A24
Track not present in AccurateRip database
Copy OK

Track 6

Filename C:\Users\Severin\Music\ALTERNATIVE\Various Artists - Java - Sundanese Folk Music\06 Pencak - Wrestling music.wav

Pre-gap length 0:00:04.50

Peak level 99.6 %
Extraction speed 3.2 X
Track quality 100.0 %
Copy CRC 9DA29256
Track not present in AccurateRip database
Copy OK

None of the tracks are present in the AccurateRip database

No errors occurred

End of status report

==== Log checksum 6CD6BAEEDC807F00B6DED59AD5873DF7C2E83F58ED9BC8B220940B17390CD7C5 ====
Download link:



Links are Interchangeable - No Password - Single Extraction

uploaded


Rapidgator.net

Site BBcode/HTML Code:
Dear visitor, you went to the site as unregistered user.
We recommend you Sign up or Login to website under your name.
Information
Would you like to leave your comment? Please Login to your account to leave comments. Don't have an account? You can create a free account now.

Tag Cloud

archive of news

^
 
free html hit counter