» » » The Wedding Ringer - Un Testimone In Affitto / The Wedding Ringer (2015)
uploaded.to



Information of news
15-07-2015, 14:37

The Wedding Ringer - Un Testimone In Affitto / The Wedding Ringer (2015)

Category: Movies / Movies (Xvid)

The Wedding Ringer - Un Testimone In Affitto / The Wedding Ringer (2015)

The Wedding Ringer - Un Testimone In Affitto / The Wedding Ringer (2015)
BDRip | AVI / XVID, 1536 Kbps | 656x272 | 1h 41mn | 1.23 GB
Italian: AC3, 192 Kbps (2 ch) | Subtitles: None
Genre: Comedy | Romance

Dopo aver consigliato al miglior amico di rompere il suo fidanzamento, un manager si innamora inaspettatamente della fidanzata piantata in asso, mettendo così alla prova sia la nuova storia d'amore sia la sua amicizia...
General
Complete name : Un.Testimone.In.Affitto.2015.iTALiAN.BDRip.XviD.avi
Format : AVI
Format/Info : Audio Video Interleave
File size : 1.23 GiB
Duration : 1h 41mn
Overall bit rate : 1 737 Kbps
Writing application : Lavf55.19.104
Writing library : VirtualDub build 35491/release

Video
ID : 0
Format : MPEG-4 Visual
Format profile : Advanced [email protected]
Format settings, BVOP : 1
Format settings, QPel : No
Format settings, GMC : No warppoints
Format settings, Matrix : Default (MPEG)
Codec ID : XVID
Codec ID/Hint : XviD
Duration : 1h 41mn
Bit rate : 1 536 Kbps
Width : 656 pixels
Height : 272 pixels
Display aspect ratio : 2.40:1
Frame rate : 23.976 fps
Color space : YUV
Chroma subsampling : 4:2:0
Bit depth : 8 bits
Scan type : Progressive
Compression mode : Lossy
Bits/(Pixel*Frame) : 0.359
Stream size : 1.09 GiB (88%)
Writing library : XviD 67

Audio
ID : 1
Format : AC-3
Format/Info : Audio Coding 3
Mode extension : CM (complete main)
Format settings, Endianness : Big
Codec ID : 2000
Duration : 1h 41mn
Bit rate mode : Constant
Bit rate : 192 Kbps
Channel(s) : 2 channels
Channel positions : Front: L R
Sampling rate : 48.0 KHz
Compression mode : Lossy
Stream size : 139 MiB (11%)
Alignment : Aligned on interleaves
Interleave, duration : 42 ms (1.00 video frame)
Interleave, preload duratio : 512 ms

screenshots:

The Wedding Ringer - Un Testimone In Affitto / The Wedding Ringer (2015)

The Wedding Ringer - Un Testimone In Affitto / The Wedding Ringer (2015)

The Wedding Ringer - Un Testimone In Affitto / The Wedding Ringer (2015)


Download link:
Links are Interchangeable - Single Extraction - Premium is support resumable

uploaded


Rapidgator.net

Site BBcode/HTML Code:
Dear visitor, you went to the site as unregistered user.
We recommend you Sign up or Login to website under your name.
Information
Would you like to leave your comment? Please Login to your account to leave comments. Don't have an account? You can create a free account now.

Tag Cloud

archive of news

^
 
free html hit counter