» » » Lynda: Travel Photography: Desert Road Trip with Ben Long
uploaded.to



Information of news
19-07-2015, 07:12

Lynda: Travel Photography: Desert Road Trip with Ben Long

Category: Tutorials / Photoshop, Photography

Lynda: Travel Photography: Desert Road Trip with Ben Long

Lynda: Travel Photography: Desert Road Trip with Ben Long
English | MP4 | 960 x 540 | AVC ~1649 kbps | 23.976 fps
AAC | 160 Kbps | 48.0 KHz | 2 channels | 01:55:38 | 1.46 GB
Genre: Video Tutorial / Video and Photography

Every type of location presents its own photographic challenges. For the stark wilderness of Death Valley National Park, these can include harsh desert light, stark landscapes, and a vastness that can be daunting to capture in a single frame. In this course, travel along with author, teacher, and photographer Ben Long to Death Valley to learn about the challenges and techniques behind capturing the exotic beauty and surprising details of the desert.
General
Complete name : 121831_02_02_LA24_Haze.mp4
Format : MPEG-4
Format profile : Base Media / Version 2
Codec ID : mp42
File size : 111 MiB
Duration : 8mn 34s
Overall bit rate mode : Variable
Overall bit rate : 1 812 Kbps
Encoded date : UTC 2013-06-04 00:10:29
Tagged date : UTC 2013-06-04 00:10:29
Writing library : Apple QuickTime
Copyright : lynda.com

Video
ID : 2
Format : AVC
Format/Info : Advanced Video Codec
Format profile : [email protected]
Format settings, CABAC : Yes
Format settings, ReFrames : 3 frames
Codec ID : avc1
Codec ID/Info : Advanced Video Coding
Duration : 8mn 34s
Source duration : 8mn 34s
Bit rate : 1 649 Kbps
Width : 960 pixels
Height : 540 pixels
Display aspect ratio : 16:9
Frame rate mode : Constant
Frame rate : 23.976 fps
Standard : NTSC
Color space : YUV
Chroma subsampling : 4:2:0
Bit depth : 8 bits
Scan type : Progressive
Bits/(Pixel*Frame) : 0.133
Stream size : 101 MiB (91%)
Source stream size : 101 MiB
Language : English
Encoded date : UTC 2013-06-04 00:10:29
Tagged date : UTC 2013-06-04 00:10:29

Audio
ID : 1
Format : AAC
Format/Info : Advanced Audio Codec
Format profile : LC
Codec ID : 40
Duration : 8mn 34s
Bit rate mode : Variable
Bit rate : 160 Kbps
Maximum bit rate : 163 Kbps
Channel(s) : 2 channels
Channel positions : Front: L R
Sampling rate : 48.0 KHz
Compression mode : Lossy
Stream size : 9.82 MiB (9%)
Language : English
Encoded date : UTC 2013-06-04 00:10:29
Tagged date : UTC 2013-06-04 00:10:29

Screenshots

Lynda: Travel Photography: Desert Road Trip with Ben Long

Lynda: Travel Photography: Desert Road Trip with Ben Long

Lynda: Travel Photography: Desert Road Trip with Ben Long

Lynda: Travel Photography: Desert Road Trip with Ben Long

Lynda: Travel Photography: Desert Road Trip with Ben Long


Download link:
Links are Interchangeable - Single Extraction - Premium is support resumable

uploaded


Rapidgator.net

Site BBcode/HTML Code:
Dear visitor, you went to the site as unregistered user.
We recommend you Sign up or Login to website under your name.
Information
Would you like to leave your comment? Please Login to your account to leave comments. Don't have an account? You can create a free account now.

Tag Cloud

archive of news

^
 
free html hit counter