» » » Drawing essential 3: Learn to shade with pencil
uploaded.to



Information of news
19-07-2015, 20:06

Drawing essential 3: Learn to shade with pencil

Category: Tutorials / Art, Drawing, Painting

Drawing essential 3: Learn to shade with pencil

Drawing essential 3: Learn to shade with pencil
English | MP4 | 1280x720 | AVC 121 Kbps 10.000 fps | AAC 53.2 Kbps 44.1 khz | 1h 28mn | 542 MB
Genre: Video Training

This is one of most essential and most requested traditional tutorial from customers. Shading seems complex, but it is really simple once you know the principle. You will learn how to shade figure using just two tones that is often use in comics drawing. You will learn complex shading using shadow within shadow to make the figure feels real. You will also learn to identify the direction of shadow and be able to put it in the correct direction.
If you are a beginner, we recommend to watch the video tutorial multiple times to get the most out of them.

I have spend years, as a concept artist, developing fast and efficient way to create different hair style for various character designs. I've acquired its core principle for you in this easy to follow Premium Video Tutorial. This complete set will get you going quickly and provide you the right direction to further develop your craftmanship. If you are new to portrait painting, my tutorial will make a massive improvement in your digital painting skill. Even if you are good, this tutorial is guaranteed to boost your knowledge and skill to the next level.

LEVEL: Basic to Intermediate

One hour and twenty-eight minutes of Video tutorials, included 4 Chapters on shading technique with pencil.
You will learn how to quickly identify direction of light and shadow.
You will learn different way to use pencil as shading tool.
You will learn how to add shadow within shadow.
You will learn how light interact with figures and how body often cast shadow on itself.
HD Resolution (approx: 1280-720) MP4 files.
PLUS! E-BOOK of Still final drawing images (no step-by step) in PDF format.

General
Complete name : chapter 1.mp4
Format : MPEG-4
Format profile : Base Media / Version 2
Codec ID : mp42
File size : 12.5 MiB
Duration : 9mn 54s
Overall bit rate mode : Variable
Overall bit rate : 176 Kbps
Encoded date : UTC 2012-04-16 22:32:44
Tagged date : UTC 2012-04-16 22:32:44

Video
ID : 1
Format : AVC
Format/Info : Advanced Video Codec
Format profile : [email protected]
Format settings, CABAC : Yes
Format settings, ReFrames : 4 frames
Codec ID : avc1
Codec ID/Info : Advanced Video Coding
Duration : 9mn 54s
Source duration : 9mn 54s
Bit rate mode : Variable
Bit rate : 121 Kbps
Maximum bit rate : 819 Kbps
Width : 1 280 pixels
Height : 720 pixels
Display aspect ratio : 16:9
Frame rate mode : Constant
Frame rate : 10.000 fps
Color space : YUV
Chroma subsampling : 4:2:0
Bit depth : 8 bits
Scan type : Progressive
Bits/(Pixel*Frame) : 0.013
Stream size : 8.56 MiB (69%)
Source stream size : 8.56 MiB (69%)
Language : English
Encoded date : UTC 2012-04-16 22:32:44
Tagged date : UTC 2012-04-16 22:32:44
Color primaries : BT.709
Transfer characteristics : BT.709
Matrix coefficients : BT.709
mdhd_Duration : 594702

Audio
ID : 2
Format : AAC
Format/Info : Advanced Audio Codec
Format profile : LC
Codec ID : 40
Duration : 9mn 54s
Source duration : 9mn 54s
Bit rate mode : Constant
Bit rate : 53.2 Kbps
Channel(s) : 2 channels
Channel positions : Front: L R
Sampling rate : 44.1 KHz
Compression mode : Lossy
Stream size : 3.77 MiB (30%)
Source stream size : 3.77 MiB (30%)
Language : English
Encoded date : UTC 2012-04-16 22:32:44
Tagged date : UTC 2012-04-16 22:32:44
mdhd_Duration : 594693

Screenshots

Drawing essential 3: Learn to shade with pencil

Drawing essential 3: Learn to shade with pencil

Drawing essential 3: Learn to shade with pencil


Download link:
Links are Interchangeable - Single Extraction - Premium is support resumable

uploaded


Rapidgator.net

Site BBcode/HTML Code:
Dear visitor, you went to the site as unregistered user.
We recommend you Sign up or Login to website under your name.
Information
Would you like to leave your comment? Please Login to your account to leave comments. Don't have an account? You can create a free account now.

Tag Cloud

archive of news

^
 
free html hit counter