» » » Richard Schmid Paints the Landscape - November
uploaded.to



Information of news
19-07-2015, 20:09

Richard Schmid Paints the Landscape - November

Category: Tutorials / Art, Drawing, Painting

Richard Schmid Paints the Landscape - November

Richard Schmid Paints the Landscape - November
DVDRip | English | AVI/AVC 29.970 fps 1340 Kbps | 624x478 | MP3 128 Kbps 48.0 khz | 1h 42mn | 1.14 GB
Genre: Video Training

Working in the freezing cold and intermittent snowfalls of Vermont's early winter, this painting demonstration is very much about painting, but it is also about how an intrepid landscape painter with a great sense of humor can not only survive Mother Nature's worst, but triumph with a first-rate painting. Special features include a gallery of Richard Schmid's landscapes.
General
Complete name : NOVEMBER.Title1.DVDRip.avi
Format : AVI
Format/Info : Audio Video Interleave
File size : 1.14 GiB
Duration : 1h 42mn
Overall bit rate : 1 580 Kbps
Movie name : NOVEMBER.Title1.DVDRip
Writing application : Lavf52.17.0
Original source form/Name : NOVEMBER

Video
ID : 0
Format : AVC
Format/Info : Advanced Video Codec
Format profile : [email protected]
Format settings, CABAC : No
Format settings, ReFrames : 1 frame
Codec ID : H264
Duration : 1h 42mn
Bit rate : 1 340 Kbps
Width : 624 pixels
Height : 478 pixels
Display aspect ratio : 4:3
Frame rate : 29.970 fps
Color space : YUV
Chroma subsampling : 4:2:0
Bit depth : 8 bits
Scan type : Progressive
Bits/(Pixel*Frame) : 0.150
Stream size : 990 MiB (85%)
Writing library : x264 core 60
Encoding settings : cabac=0 / ref=1 / deblock=0:0:0 / analyse=0x1:0 / me=dia / subme=7 / brdo=0 / mixed_ref=0 / me_range=4 / chroma_me=1 / trellis=0 / 8x8dct=0 / cqm=0 / deadzone=21,11 / chroma_qp_offset=0 / threads=4 / nr=0 / decimate=1 / mbaff=0 / bframes=0 / keyint=250 / keyint_min=25 / scenecut=0(pre) / rc=abr / bitrate=1340 / ratetol=6.1 / rceq='tex^qComp' / qcomp=0.50 / qpmin=10 / qpmax=31 / qpstep=3 / ip_ratio=1.25 / aq=0

Audio
ID : 1
Format : AC-3
Format/Info : Audio Coding 3
Mode extension : CM (complete main)
Format settings, Endianness : Big
Codec ID : 2000
Duration : 1h 42mn
Bit rate mode : Constant
Bit rate : 224 Kbps
Channel(s) : 2 channels
Channel positions : Front: L R
Sampling rate : 48.0 KHz
Bit depth : 16 bits
Compression mode : Lossy
Stream size : 165 MiB (14%)
Alignment : Aligned on interleaves
Interleave, duration : 32 ms (0.96 video frame)
Interleave, preload duration : 32 ms

Screenshots

Richard Schmid Paints the Landscape - November

Richard Schmid Paints the Landscape - November

Richard Schmid Paints the Landscape - November



Download link:
Links are Interchangeable - Single Extraction - Premium is support resumable

uploaded


Rapidgator.net

Site BBcode/HTML Code:
Dear visitor, you went to the site as unregistered user.
We recommend you Sign up or Login to website under your name.
Information
Would you like to leave your comment? Please Login to your account to leave comments. Don't have an account? You can create a free account now.

Tag Cloud

archive of news

^
 
free html hit counter