» » Jonathan Jeremiah - Berlin Live (2015) [HDTV 720p]
uploaded.to



Information of news
4-08-2015, 04:33

Jonathan Jeremiah - Berlin Live (2015) [HDTV 720p]

Category: Music

Jonathan Jeremiah - Berlin Live (2015) [HDTV 720p]

Jonathan Jeremiah - Berlin Live (2015)
HDTV 720p | MKV | 4986 kbps, 1280x720 at 25.000 fps, AVC ([email protected]) | 256 kbps, 48 kHz, 6 channels, E-AC3
Soul/Folk | Length: 00:54:41 | 2.04 GB | Uploadable/Nitroflare

Jonathan Jeremiah is a British singer signed to Island Records, part of Universal Music Group.
Jeremiah was raised in North London. His debut album A Solitary Man was released on 21 March 2011 followed by Gold Dust on 22 October 2012. The title song "Gold Dust" recorded with the Netherlands-based Metropole Orkest charted in France. He also engaged on a European tour to promote his album.

Jonathan Jeremiah - Berlin Live (2015) [HDTV 720p]


Tracklist
Gold Dust
Rosario
Arms
Lost
Smiling
How Half-Heartedly We Behave
Oh Desire
Heart Of Stone
Walking On Air
Happiness
The Birds
Wild Fire

General
Unique ID : 186533303889375897969103798623457623755 (0x8C5501EF5C5203D18B936DEE3681BECB)
Complete name : C:\Users\ggu\Desktop\ggu\Jonathan_Jeremiah-Live_at_Berlin_Live_(2015-07-11)-720p-x264-2015-FOCAL\jonathan_jeremiah-live berlin.mkv
Format : Matroska
Format version : Version 4 / Version 2
File size : 2.04 GiB
Duration : 54mn 41s
Overall bit rate : 5 349 Kbps
Encoded date : UTC 2015-07-29 12:19:10
Writing application : mkvmerge v8.2.0 ('World of Adventure') 32bit
Writing library : libebml v1.3.1 + libmatroska v1.4.2
DURATION : 00:54:41.856000000
NUMBER_OF_FRAMES : 102558
NUMBER_OF_BYTES : 105019392
_STATISTICS_WRITING_APP : mkvmerge v8.2.0 ('World of Adventure') 32bit
_STATISTICS_WRITING_DATE_UTC : 2015-07-29 12:19:10
_STATISTICS_TAGS : BPS DURATION NUMBER_OF_FRAMES NUMBER_OF_BYTES

Video
ID : 1
Format : AVC
Format/Info : Advanced Video Codec
Format profile : [email protected]
Format settings, CABAC : Yes
Format settings, ReFrames : 5 frames
Codec ID : V_MPEG4/ISO/AVC
Duration : 54mn 41s
Bit rate : 4 986 Kbps
Width : 1 280 pixels
Height : 720 pixels
Display aspect ratio : 16:9
Frame rate mode : Constant
Frame rate : 25.000 fps
Color space : YUV
Chroma subsampling : 4:2:0
Bit depth : 8 bits
Scan type : Progressive
Bits/(Pixel*Frame) : 0.216
Stream size : 1.91 GiB (93%)
Writing library : x264 core 146 r2538 121396c
Encoding settings : cabac=1 / ref=5 / deblock=1:0:0 / analyse=0x3:0x133 / me=umh / subme=9 / psy=1 / psy_rd=1.00:0.00 / mixed_ref=1 / me_range=24 / chroma_me=1 / trellis=1 / 8x8dct=1 / cqm=0 / deadzone=21,11 / fast_pskip=0 / chroma_qp_offset=-2 / threads=12 / lookahead_threads=1 / sliced_threads=0 / nr=0 / decimate=1 / interlaced=0 / bluray_compat=0 / constrained_intra=0 / bframes=16 / b_pyramid=2 / b_adapt=1 / b_bias=0 / direct=1 / weightb=1 / open_gop=0 / weightp=2 / keyint=250 / keyint_min=25 / scenecut=40 / intra_refresh=0 / rc_lookahead=40 / rc=crf / mbtree=1 / crf=19.0 / qcomp=0.60 / qpmin=10 / qpmax=24 / qpstep=4 / ip_ratio=1.40 / aq=1:1.00
Default : Yes
Forced : No

Audio
ID : 2
Format : E-AC-3
Format/Info : Audio Coding 3
Format settings, Endianness : Big
Codec ID : A_EAC3
Duration : 54mn 41s
Bit rate mode : Constant
Bit rate : 256 Kbps
Channel(s) : 6 channels
Channel positions : Front: L C R, Side: L R, LFE
Sampling rate : 48.0 KHz
Compression mode : Lossy
Stream size : 100 MiB (5%)
Language : English
Default : Yes
Forced : No

Thanks to the original uploader
Download link:
Links are Interchangeable - Single Extraction - Premium is support resumable

uploaded


Rapidgator.net

Site BBcode/HTML Code:
Dear visitor, you went to the site as unregistered user.
We recommend you Sign up or Login to website under your name.
Information
Would you like to leave your comment? Please Login to your account to leave comments. Don't have an account? You can create a free account now.

Tag Cloud

archive of news

^
 
free html hit counter