» » VA - 2001 Sound Odyssey (CD3) (2000) {Ubiquity Records sampler}
uploaded.to



Information of news
4-08-2015, 05:04

VA - 2001 Sound Odyssey (CD3) (2000) {Ubiquity Records sampler}

Category: Music

VA - 2001 Sound Odyssey (CD3) (2000) {Ubiquity Records sampler}

VA - 2001 Sound Odyssey (CD3) (2000) {Ubiquity Records sampler}
EAC Rip | FLAC with CUE and log | scans | 101 mb
MP3 CBR 320kbps | RAR | 38 mb
Genre: electronica, down tempo

2001 Sound Odyssey was a promotional CD3 released by Ubiquity Records in 2000 as a preview of what was to come in 2001. It featured songs that were not released on an album.
1. DJ Greyboy - Master The Art
2. P'Taah - Flying High (Unreleased Version)
3. Nobody - Sioux's Reign (Part II)

EAC extraction logfile from 29. January 2007, 12:39 for CD
Various / 2001 Sound Odyssey (CD3)

Used drive : LITE-ON DVDRW SOHW-1633S Adapter: 0 ID: 0
Read mode : Secure with NO C2, accurate stream, disable cache
Read offset correction : 12
Overread into Lead-In and Lead-Out : No

Used output format : Internal WAV Routines
44.100 Hz; 16 Bit; Stereo

Other options :
Fill up missing offset samples with silence : Yes
Delete leading and trailing silent blocks : No
Installed external ASPI interface

Track 1
Filename D:\FLAC\VA - 2001 Sound Odyssey (CD3) (2000) [FLAC] {Ubiquity Records sampler}\01 - DJ Greyboy - Master The Art.wav

Pre-gap length 0:00:02.00

Peak level 96.5 %
Track quality 100.0 %
Test CRC E1A8122E
Copy CRC E1A8122E
Copy OK

Track 2
Filename D:\FLAC\VA - 2001 Sound Odyssey (CD3) (2000) [FLAC] {Ubiquity Records sampler}\02 - P'Taah - Flying High (Unreleased Version).wav

Peak level 96.5 %
Track quality 100.0 %
Test CRC 735DADA9
Copy CRC 735DADA9
Copy OK

Track 3
Filename D:\FLAC\VA - 2001 Sound Odyssey (CD3) (2000) [FLAC] {Ubiquity Records sampler}\03 - Nobody - Sioux's Reign (Part II).wav

Peak level 96.5 %
Track quality 100.0 %
Test CRC 0E48F942
Copy CRC 0E48F942
Copy OK

No errors occured

End of status report
Download link:
Links are Interchangeable - Single Extraction - Premium is support resumable

uploaded


Rapidgator.net

Site BBcode/HTML Code:
Dear visitor, you went to the site as unregistered user.
We recommend you Sign up or Login to website under your name.
Information
Would you like to leave your comment? Please Login to your account to leave comments. Don't have an account? You can create a free account now.

Tag Cloud

archive of news

^
 
free html hit counter