» » Craig Fraser - Radical Helmet Graphix
uploaded.to



Information of news
  • Author: BaDshaH
  • Date: 6-08-2015, 09:42
6-08-2015, 09:42

Craig Fraser - Radical Helmet Graphix

Category: Tutorials



In this video, Craig demonstrates the latest trick graphics used in Kustom helmet painting today. From masking techniques to stencils to freehand airnrushing, Craig incorporates these all into a seamless design that encompasses the look that today's off-road, streetbike, and racing clients are looking for. Keep your helmet skills on the leading edge with this money making addition to your kustom video arsenal. A must for all kustom painters, beginning or advanced.

General
Complete name : Craig Fraser, Radical Helmet Graphix.avi
Format : AVI
Format/Info : Audio Video Interleave
File size : 942 MiB
Duration : 1h 38mn
Overall bit rate : 1 342 Kbps

Video
ID : 0
Format : MPEG-4 Visual
Format profile : [email protected]
Format settings, BVOP : No
Format settings, QPel : No
Format settings, GMC : No warppoints
Format settings, Matrix : Default (H.263)
Codec ID : DIVX
Codec ID/Info : Project Mayo
Codec ID/Hint : DivX 4
Duration : 1h 38mn
Source duration : 1h 38mn
Bit rate : 1 200 Kbps
Width : 720 pixels
Height : 480 pixels
Display aspect ratio : 2.000
Frame rate : 29.970 fps
Standard : NTSC
Color space : YUV
Chroma subsampling : 4:2:0
Bit depth : 8 bits
Scan type : Progressive
Compression mode : Lossy
Bits/(Pixel*Frame) : 0.116
Stream size : 842 MiB (89%)
Writing library : avc2.0.11.1110

Audio
ID : 1
Format : MPEG Audio
Format version : Version 1
Format profile : Layer 3
Mode : Joint stereo
Mode extension : MS Stereo
Codec ID : 55
Codec ID/Hint : MP3
Duration : 1h 38mn
Source duration : 1h 38mn
Bit rate mode : Constant
Bit rate : 128 Kbps
Channel(s) : 2 channels
Sampling rate : 48.0 KHz
Compression mode : Lossy
Stream size : 89.8 MiB (10%)
Alignment : Aligned on interleaves
Interleave, duration : 24 ms (0.72 video frame)


Screenshots

Craig Fraser - Radical Helmet Graphix

Craig Fraser - Radical Helmet Graphix

Craig Fraser - Radical Helmet Graphix



I recommends Buy premimum account for High speed+parallel downloads!

rapidgator


Nitroflare


uploaded


Rapidgator.net

Site BBcode/HTML Code:
Dear visitor, you went to the site as unregistered user.
We recommend you Sign up or Login to website under your name.
Information
Would you like to leave your comment? Please Login to your account to leave comments. Don't have an account? You can create a free account now.

Tag Cloud

archive of news

^
 
free html hit counter