» » Pluralsight Object-Oriented Programming Fundamentals in C#
uploaded.to



Information of news
  • Author: BaDshaH
  • Date: 8-08-2015, 08:31
8-08-2015, 08:31

Pluralsight Object-Oriented Programming Fundamentals in C#

Category: Tutorials






"This course takes you, step by step, through the principles and practices of object-oriented programming (OOP). The course provides you with the firm foundation in OOP that you need to progress to intermediate-level C# courses."


It begins by showing you how to turn a set of words into a set of well-defined and related classes. Through demonstrations, it teaches you key object-oriented concepts such as abstraction, encapsulation, inheritance, polymorphism, and interfaces.


Duration: 4h 22m[/i]

[b]Contents:[/b]
Introduction
Introduction
Object != Class
What is Object-Oriented Programming?
Course Outline

Identifying Classes From Requirements
Introduction
Analyze the Business Problem
Start With the Nouns
Define Appropriate Members
Abstraction
Encapsulation
Summary

Building Entity Classes - Part 1
Introduction
Layering the Application
Building the Business Logic Layer Component
Building a Class: Properties
Testing the Class
Working With Objects
Summary

Building Entity Classes - Part 2
Introduction
Building a Class: Methods
Terms
Building a Class: Constructors
Building the Remaining Classes
Summary

Separating Responsibilities
Introduction
Revisiting the Class Diagram
Building the Address Class
Building the Repository Classes
Summary

Establishing Relationships
Introduction
Defining the Relationships
Types of Relationships
Collaboration
Composition
Composition: References
Populating the Referenced Objects
Composition: Ids
Building the Single Purpose Classes
Inheritance
Summary

Leveraging Reuse
Introduction
Techniques for Leveraging Reuse
The .NET Object Class
Overriding Base Class Functionality
Polymorphism
Building a Base Class
Summary

Building Reusable Components
Introduction
Building a Reusable Component
Testing the Reusable Component
Using the Reusable Component
Static Classes
Extension Methods
Static Method vs. Extension Method
Summary

Understanding Interfaces
Introduction
.NET Interfaces
Setting Up the Demo
Defining an Interface
Implementing an Interface
Interface-based Polymorphism
Summary

Final Words and Next Steps
Introduction
Summary
Next Steps

project files are included
http://anonym.to/?http://www.pluralsight.com/courses/object-oriented-programming-fundamentals-csharp

General
Complete name : 06. Establishing Relationships\06_08-Composition Ids.mp4
Format
: MPEG-4
Format profile : Base Media / Version 2
Codec ID
: mp42
File size
: 14.8 MiB
Duration
: 6mn 21s
Overall bit rate mode : Variable
Overall bit rate : 325 Kbps
Encoded date : UTC 2014-07-01 20:56:44
Tagged date
: UTC 2014-07-01 20:57:10
Writing application

: HandBrake 0.9.8 2012071700

Video
ID : 1
Format
: AVC
Format/Info
: Advanced Video Codec
Format profile : [url=http://www.fs-data-base.com/cdn-cgi/l/email-protection][email protected][/url]
Format settings, CABAC : No
Format settings, ReFrames : 2 frames
Format settings, GOP : M=1, N=50
Codec ID
: avc1
Codec ID/Info : Advanced Video Coding
Duration
: 6mn 21s
Duration_FirstFrame

: 67ms
Bit rate mode : Variable
Bit rate
: 195 Kbps
Width
: 1 024 pixels
Height
: 768 pixels
Display aspect ratio : 4:3
Frame rate mode : Constant
Frame rate
: 15.000 fps
Color space
: YUV
Chroma subsampling

: 4:2:0
Bit depth
: 8 bits
Scan type
: Progressive
Bits/(Pixel*Frame)

: 0.017
Stream size
: 8.85 MiB (60%)
Writing library : x264 core 120
Encoding settings: cabac=0 / ref=2 / deblock=1:0:0 / analyse=0x1:0x111 / me=umh / subme=6 / psy=1 / psy_rd=1.00:0.00 / mixed_ref=1 / me_range=16 / chroma_me=1 / trellis=0 / 8x8dct=0 / cqm=0 / deadzone=21,11 / fast_pskip=1 / chroma_qp_offset=-2 / threads=12 / sliced_threads=0 / nr=0 / decimate=1 / interlaced=0 / bluray_compat=0 / constrained_intra=0 / bframes=0 / weightp=0 / keyint=50 / keyint_min=15 / scenecut=40 / intra_refresh=0 / rc_lookahead=40 / rc=crf / mbtree=1 / crf=20.0 / qcomp=0.60 / qpmin=3 / qpmax=69 / qpstep=4 / ip_ratio=1.40 / aq=1:1.00
Encoded date : UTC 2014-07-01 20:56:44
Tagged date
: UTC 2014-07-01 20:57:10
Color primaries : BT.709-5, BT.1361, IEC 61966-2-4, SMPTE RP177
Transfer characteristics : BT.709-5, BT.1361
Matrix coefficients

: BT.709-5, BT.1361, IEC 61966-2-4 709, SMPTE RP177

Audio
ID : 2
Format
: AAC
Format/Info
: Advanced Audio Codec
Format profile : LC
Codec ID
: 40
Duration
: 6mn 21s
Bit rate mode : Variable
Bit rate
: 128 Kbps
Maximum bit rate : 153 Kbps
Channel(s)
: 2 channels
Channel positions: Front: L R
Sampling rate : 44.1 KHz
Compression mode : Lossy
Stream size
: 5.82 MiB (39%)
Language
: English
Encoded date : UTC 2014-07-01 20:56:44
Tagged date
: UTC 2014-07-01 20:57:09


Screenshots

Pluralsight  Object-Oriented Programming Fundamentals in C#

Pluralsight  Object-Oriented Programming Fundamentals in C#

Pluralsight  Object-Oriented Programming Fundamentals in C#


I recommends Buy premimum account for High speed+parallel downloads!

rapidgator


Nitroflare


uploaded


Rapidgator.net

Site BBcode/HTML Code:
Dear visitor, you went to the site as unregistered user.
We recommend you Sign up or Login to website under your name.
Information
Would you like to leave your comment? Please Login to your account to leave comments. Don't have an account? You can create a free account now.

Tag Cloud

archive of news

^
 
free html hit counter