» » Behind the Player: Dimmu Borgir Guitarists Galder & Silenoz
uploaded.to



Information of news
11-08-2015, 12:19

Behind the Player: Dimmu Borgir Guitarists Galder & Silenoz

Category: Tutorials

Behind the Player: Dimmu Borgir Guitarists Galder & Silenoz

Behind the Player: Dimmu Borgir Guitarists Galder & Silenoz
DVD9 in ISO-image | English | VIDEO_TS | 720 x 480 | MPEG2 ~6152 Kbps | 23.976 fps
AC-3 | 192 Kbps | 48.0 KHz | 2 channels | ~70 min | 5.9 GB
Genre: eLearning Video / Guitar lesson (2015)

In Behind the Player: Dimmu Borgir, guitarists Silenoz and Galder give an intimate behind-the-scenes look at their lives as professional musicians, including rare photos and video footage. Silenoz and Galder also provide in-depth guitar lessons on how to play Dimmu Borgir's "The Serpentine Offering" and "The Chosen Legacy." The VideoTab system shows exactly how Silenoz and Galder play their parts in the songs.
General
Complete name : VTS_03_1.VOB
Format : MPEG-PS
File size : 1 024 MiB
Duration : 22mn 6s
Overall bit rate mode : Variable
Overall bit rate : 6 473 Kbps

Video
ID : 224 (0xE0)
Format : MPEG Video
Format version : Version 2
Format profile : [email protected]
Format settings, BVOP : Yes
Format settings, Matrix : Custom
Format settings, GOP : M=3, N=12
Duration : 22mn 6s
Bit rate mode : Variable
Bit rate : 6 152 Kbps
Maximum bit rate : 7 700 Kbps
Width : 720 pixels
Height : 480 pixels
Display aspect ratio : 16:9
Frame rate : 23.976 fps
Standard : NTSC
Color space : YUV
Chroma subsampling : 4:2:0
Bit depth : 8 bits
Scan type : Progressive
Scan order : 2:3 Pulldown
Compression mode : Lossy
Bits/(Pixel*Frame) : 0.742
Stream size : 973 MiB (95%)
Color primaries : SMPTE 170M
Transfer characteristics : SMPTE 170M
Matrix coefficients : SMPTE 170M

Audio
ID : 189 (0xBD)-128 (0x80)
Format : AC-3
Format/Info : Audio Coding 3
Mode extension : CM (complete main)
Muxing mode : DVD-Video
Duration : 22mn 6s
Bit rate mode : Constant
Bit rate : 192 Kbps
Channel(s) : 2 channels
Channel positions : Front: L R
Sampling rate : 48.0 KHz
Bit depth : 16 bits
Compression mode : Lossy
Stream size : 30.4 MiB (3%)

Menu

Screenshots

Behind the Player: Dimmu Borgir Guitarists Galder & Silenoz

Behind the Player: Dimmu Borgir Guitarists Galder & Silenoz

Behind the Player: Dimmu Borgir Guitarists Galder & Silenoz

Behind the Player: Dimmu Borgir Guitarists Galder & Silenoz

Behind the Player: Dimmu Borgir Guitarists Galder & Silenoz

Download link:
Rapidgator:
n2gut.Behind.the.Player.Dimmu.Borgir.Guitarists.Galder..Silenoz.part1.rar.html
n2gut.Behind.the.Player.Dimmu.Borgir.Guitarists.Galder..Silenoz.part2.rar.html
n2gut.Behind.the.Player.Dimmu.Borgir.Guitarists.Galder..Silenoz.part3.rar.html
n2gut.Behind.the.Player.Dimmu.Borgir.Guitarists.Galder..Silenoz.part4.rar.html
n2gut.Behind.the.Player.Dimmu.Borgir.Guitarists.Galder..Silenoz.part5.rar.html
n2gut.Behind.the.Player.Dimmu.Borgir.Guitarists.Galder..Silenoz.part6.rar.html
n2gut.Behind.the.Player.Dimmu.Borgir.Guitarists.Galder..Silenoz.part7.rar.html

Nitroflare:
n2gut.Behind.the.Player.Dimmu.Borgir.Guitarists.Galder..Silenoz.part1.rar
n2gut.Behind.the.Player.Dimmu.Borgir.Guitarists.Galder..Silenoz.part2.rar
n2gut.Behind.the.Player.Dimmu.Borgir.Guitarists.Galder..Silenoz.part3.rar
n2gut.Behind.the.Player.Dimmu.Borgir.Guitarists.Galder..Silenoz.part4.rar
n2gut.Behind.the.Player.Dimmu.Borgir.Guitarists.Galder..Silenoz.part5.rar
n2gut.Behind.the.Player.Dimmu.Borgir.Guitarists.Galder..Silenoz.part6.rar
n2gut.Behind.the.Player.Dimmu.Borgir.Guitarists.Galder..Silenoz.part7.rar

Uploadable.ch:
n2gut.Behind.the.Player.Dimmu.Borgir.Guitarists.Galder..Silenoz.part1.rar
n2gut.Behind.the.Player.Dimmu.Borgir.Guitarists.Galder..Silenoz.part2.rar
n2gut.Behind.the.Player.Dimmu.Borgir.Guitarists.Galder..Silenoz.part3.rar
n2gut.Behind.the.Player.Dimmu.Borgir.Guitarists.Galder..Silenoz.part4.rar
n2gut.Behind.the.Player.Dimmu.Borgir.Guitarists.Galder..Silenoz.part5.rar
n2gut.Behind.the.Player.Dimmu.Borgir.Guitarists.Galder..Silenoz.part6.rar
n2gut.Behind.the.Player.Dimmu.Borgir.Guitarists.Galder..Silenoz.part7.rar
Links are Interchangeable - Single Extraction - Premium is support resumable

uploaded


Rapidgator.net

Site BBcode/HTML Code:
Dear visitor, you went to the site as unregistered user.
We recommend you Sign up or Login to website under your name.
Information
Would you like to leave your comment? Please Login to your account to leave comments. Don't have an account? You can create a free account now.

Tag Cloud

archive of news

^
 
free html hit counter