» » » Grant Cardone - 10X Everything Webinar
uploaded.to



Information of news
11-08-2015, 12:57

Grant Cardone - 10X Everything Webinar

Category: Tutorials / Other

Grant Cardone - 10X Everything Webinar

Grant Cardone - 10X Everything Webinar
WEBRip | English | MP4 + PDF Guides | 640 x 360 | AVC ~293 kbps | 30 fps
AAC | 96 Kbps | 44.1 KHz | 2 channels | ~5 hours | 838 MB
Genre: eLearning Video / Business, Mindset, Achievement

To create a Super Extraordinary 10X Life for yourself and others you MUST change your think. This starts with absolving yourself of the thinking that traps you and replacing that with new information. Grant Cardone
General
Complete name : 10X Everything - Create Your SuperLife with Grant Cardone.mp4
Format : MPEG-4
Format profile : Base Media / Version 2
Codec ID : mp42
File size : 824 MiB
Duration : 4h 54mn
Overall bit rate mode : Variable
Overall bit rate : 391 Kbps
Encoded date : UTC 2015-07-30 02:03:00
Tagged date : UTC 2015-07-30 02:03:00
gsst : 0
gstd : 17655616
gssd : B0AFCF36BHM1438281048008742
gshh : r11---sn-25ge7nek.googlevideo.com

Video
ID : 1
Format : AVC
Format/Info : Advanced Video Codec
Format profile : [email protected]
Format settings, CABAC : No
Format settings, ReFrames : 1 frame
Format settings, GOP : M=1, N=60
Codec ID : avc1
Codec ID/Info : Advanced Video Coding
Duration : 4h 54mn
Bit rate : 293 Kbps
Maximum bit rate : 2 605 Kbps
Width : 640 pixels
Height : 360 pixels
Display aspect ratio : 16:9
Frame rate mode : Constant
Frame rate : 30.000 fps
Color space : YUV
Chroma subsampling : 4:2:0
Bit depth : 8 bits
Scan type : Progressive
Bits/(Pixel*Frame) : 0.042
Stream size : 616 MiB (75%)
Tagged date : UTC 2015-07-30 02:04:08

Audio
ID : 2
Format : AAC
Format/Info : Advanced Audio Codec
Format profile : LC
Codec ID : 40
Duration : 4h 54mn
Bit rate mode : Variable
Bit rate : 96.0 Kbps
Maximum bit rate : 104 Kbps
Channel(s) : 2 channels
Channel positions : Front: L R
Sampling rate : 44.1 KHz
Compression mode : Lossy
Stream size : 202 MiB (25%)
Title : IsoMedia File Produced by Google, 5-11-2011
Encoded date : UTC 2015-07-30 02:03:38
Tagged date : UTC 2015-07-30 02:04:08

Screenshots

Grant Cardone - 10X Everything Webinar

Grant Cardone - 10X Everything Webinar

Grant Cardone - 10X Everything Webinar


Download link:
Links are Interchangeable - Single Extraction - Premium is support resumable

uploaded


Rapidgator.net

Site BBcode/HTML Code:
Dear visitor, you went to the site as unregistered user.
We recommend you Sign up or Login to website under your name.
Information
Would you like to leave your comment? Please Login to your account to leave comments. Don't have an account? You can create a free account now.

Tag Cloud

archive of news

^
 
free html hit counter