» » Dave Weckl - A Natural Evolution Vol. 3 How To Develop Your Own Sound
uploaded.to



Information of news
  • Author: BaDshaH
  • Date: 12-08-2015, 08:13
12-08-2015, 08:13

Dave Weckl - A Natural Evolution Vol. 3 How To Develop Your Own Sound

Category: Tutorials




" The third DVD in the A Natural Evolution Series, Weckl focuses on all aspects of developing your own sound. Beginning with how to get a great accoustic sound, Weckl walks the viewer through all the details of tuning your kit and the various functions while guiding the viewer through proper selection and placement. Next Weckl works with the mixing console and covers frequencies, equalization, phase cancellation and noise gates."


General
Complete name : Dave Weckl How To Develop Your Own Sound.mpg
Format
: MPEG-PS
File size
: 724 MiB
Duration
: 1h 12mn
Overall bit rate : 1 394 Kbps

Video
ID : 224 (0xE0)
Format
: MPEG Video
Format version : Version 1
Format settings, BVOP : Yes
Format settings, Matrix : Custom
Format settings, GOP : M=3, N=18
Duration
: 1h 12mn
Bit rate
: 1 150 Kbps
Width
: 352 pixels
Height
: 240 pixels
Display aspect ratio : 4:3
Frame rate
: 23.976 fps
Standard
: NTSC
Color space
: YUV
Chroma subsampling

: 4:2:0
Bit depth
: 8 bits
Scan type
: Progressive
Compression mode : Lossy
Bits/(Pixel*Frame)

: 0.568
Time code of first frame : 00:00:00:00
Time code source : Group of pictures header
Stream size
: 594 MiB (82%)
Writing library : TMPGEnc 2.59.47.155

Audio
ID : 192 (0xC0)
Format
: MPEG Audio
Format version : Version 1
Format profile : Layer 2
Duration
: 1h 12mn
Bit rate mode : Constant
Bit rate
: 224 Kbps
Channel(s)
: 2 channels
Sampling rate : 44.1 KHz
Compression mode : Lossy
Stream size
: 116 MiB (16%)


Screenshots

Dave Weckl - A Natural Evolution Vol. 3  How To Develop Your Own Sound

Dave Weckl - A Natural Evolution Vol. 3  How To Develop Your Own Sound

Dave Weckl - A Natural Evolution Vol. 3  How To Develop Your Own Sound










I recommends Buy premimum account for High speed+parallel downloads!

rapidgator


Nitroflare


uploaded


Rapidgator.net

Site BBcode/HTML Code:
Dear visitor, you went to the site as unregistered user.
We recommend you Sign up or Login to website under your name.
Information
Would you like to leave your comment? Please Login to your account to leave comments. Don't have an account? You can create a free account now.

Tag Cloud

archive of news

^
 
free html hit counter