» » Cozy Powell - The Drums Are Back (1992)
uploaded.to



Information of news
13-08-2015, 12:14

Cozy Powell - The Drums Are Back (1992)

Category: Music

Cozy Powell - The Drums Are Back (1992)

Cozy Powell - The Drums Are Back (1992)
Rock | 1cd | EAC Rip | Flac + Cue + Log | covers
Polydor POCP-1205 | rel: 1992 | 300Mb

Following the 1983 release of Powell's third solo album "Octopus", it took another 9 years for him to come up with his fourth and final release prior to his untimely death. This album was recorded between Powell's two stints with Black Sabbath, and following its release he took a band on the road under the name Cozy Powell's Hammer. Once again, he calls upon a who's who of musicians to support him, although the line ups here are somewhat different to those which appeared on his first two albums.
By and large, Powell reverts to the ambitious jazz rock numbers which were a feature of the "Over the top" debut, the emphasis being mainly on heavy drum laden instrumentals. There are a couple of songs, Gerry Lane being the vocalist on both. Of these, "I wanna hear you shout" is the low point of the album, being a lightweight, undistinguished rock number. Lane composes both the songs which bear his voice, the second, "Cryin'", is a slower ballad and noticeably the better of the two.
On the other hand, highlights of the album include the guitar laden two part piece "Light in the sky/Return of the 7", a pleasing jazz rock workout also featuring the keyboards of Don Airey. On "Battle hymn", which closes the first side, Steve Lukather provides some fine Gary Moore like lead guitar while Don Airey's symphonic keyboards orchestration add some welcome colour too.
The second side of the album is arguably the more melodic, featuring the guitar pieces "Legend of the glass mountain" and Mason Williams' superb "Classical gas". Steve Lukather once again plays lead on the former, accompanied by Jon Lord on keyboards. This version of the oft covered "Classical gas" is largely faithful to the original, the guitars and keyboards being provided by Ray Fenwick. It is of course one of those pieces it is always great to hear. "Somewhere in time" is of interest as it features Brian May and John Deacon of Queen, the piece being a slow, atmospheric blues guitar number. The melody would actually have sounded great over the closing titles of the film of that name (starring Christopher Reeve and Jane Seymour).
In all, a decent album by Powell, who did actual record one further solo album before his death, although it was released posthumously in 1999. While there are a number of worthy tracks here, none stands out as being the album's "Over the top". Those who enjoy that debut album by Cozy though should find this to their liking too. ~progarchives

Track listing
01. The Drums Are Back (4:20)
02. Ride To win (3:47)
03. I Wanna Hear You Shout (3:39)
04. Light In The Sky / Return Of The 7 (6:04)
05. Battle Hymn (4:46)
06. Legend Of The Glass Mountain (5:06)
07. Cryin' (4:53)
08. Classical Gas (3:18)
09. Somewhere In Time (3:52)
10. The Rocket (3:35)
~ (43:19)

Personnel
- Ray Fenwick - guitars,keyboards, programming (8)
- Brian May - guitars (2,7,9)
- Steve Lukather - guitars (4,6)
- Jamie Page - guitars (3,7)
- Steve Makin - guitars, bass (1,5,10)
- Billy Sheehan - bass (4,6)
- Neil Murray - bass (1,3,5,7)
- John Deacon - bass (9)
- Laurence Cottle - bass (8)
- John Sinclair - keyboards (3)
- Jon Lord - keyboards (6,10)
- Don Airey - keyboards, bass, sequencing (2,4)
- Geoff Nicholls - keyboards, sequencing and programming (1,5,9,10)
- Jeff Francis / Keyboards, sequencing and programming (6)
- Gerry Lane / Vocals (3,7)

Exact Audio Copy V0.99 prebeta 5 from 4. May 2009

EAC extraction logfile from 19. July 2011, 18:47

Cozy Powell / The Drums Are Back

Used drive : PIONEER DVD-RW DVR-116D Adapter: 4 ID: 0

Read mode : Secure
Utilize accurate stream : Yes
Defeat audio cache : Yes
Make use of C2 pointers : No

Read offset correction : 96
Overread into Lead-In and Lead-Out : No
Fill up missing offset samples with silence : Yes
Delete leading and trailing silent blocks : No
Null samples used in CRC calculations : Yes
Used interface : Installed external ASPI interface

Used output format : Internal WAV Routines
Sample format : 44.100 Hz; 16 Bit; Stereo

TOC of the extracted CD

Track | Start | Length | Start sector | End sector
---------------------------------------------------------
1 | 0:00.37 | 4:19.70 | 37 | 19531
2 | 4:20.32 | 3:46.63 | 19532 | 36544
3 | 8:07.20 | 3:38.65 | 36545 | 52959
4 | 11:46.10 | 6:04.00 | 52960 | 80259
5 | 17:50.10 | 4:45.65 | 80260 | 101699
6 | 22:36.00 | 5:05.52 | 101700 | 124626
7 | 27:41.52 | 4:53.35 | 124627 | 146636
8 | 32:35.12 | 3:18.10 | 146637 | 161496
9 | 35:53.22 | 3:51.43 | 161497 | 178864
10 | 39:44.65 | 3:34.60 | 178865 | 194974

Range status and errors

Selected range

Filename C:\+EAC+\Cozy Powell - The Drums Are Back.wav

Peak level 100.0 %
Range quality 100.0 %
Test CRC 4B0531A3
Copy CRC 4B0531A3
Copy OK

No errors occurred


AccurateRip summary

Track 1 not present in database
Track 2 not present in database
Track 3 not present in database
Track 4 not present in database
Track 5 not present in database
Track 6 not present in database
Track 7 not present in database
Track 8 not present in database
Track 9 not present in database
Track 10 not present in database

None of the tracks are present in the AccurateRip database

End of status report

[CUETools log; Date: 2015.08.10. 15:19:56; Version: 2.1.5]
Pregap length 00:00:37.
[CTDB TOCID: qUOj_19QqJcZhnsNGjB.68b5JSk-] disk not present in database.
[AccurateRip ID: 0010bfa3-00865839-910a270a] found.
Track [ CRC | V2 ] Status
01 [56ee70b9|bcbc81f9] (0+0/3) No match
02 [11bc7698|028d488e] (0+0/3) No match
03 [472c15eb|ad89469b] (0+0/3) No match
04 [37cd6f23|2539fabf] (0+0/3) No match
05 [3a5f541c|7698c7bc] (0+0/3) No match
06 [0f6450b7|b70f2c8d] (0+0/3) No match
07 [97519f2c|245e0295] (0+0/3) No match
08 [371d00f6|debc3816] (0+0/3) No match
09 [923427cf|2683a967] (0+0/3) No match
10 [0aefea6d|2ff1963f] (0+0/3) No match
Offsetted by 664:
01 [11d89444] (0/3) No match (V2 was not tested)
02 [c37dc41d] (0/3) No match (V2 was not tested)
03 [f2b2c363] (0/3) No match (V2 was not tested)
04 [9a666768] (0/3) No match (V2 was not tested)
05 [7914c207] (0/3) No match (V2 was not tested)
06 [d95c6f9f] (0/3) No match (V2 was not tested)
07 [15599d1c] (0/3) No match (V2 was not tested)
08 [3e38fb66] (0/3) No match (V2 was not tested)
09 [4262fb47] (0/3) No match (V2 was not tested)
10 [e1f62a8d] (0/3) No match (V2 was not tested)

Track Peak [ CRC32 ] [W/O NULL] [ LOG ]
-- 100,0 [4B0531A3] [67E57F15] CRC32
01 88,4 [094C8580] [9344BAD3]
02 100,0 [98A09702] [2AB48D0B]
03 100,0 [DE790857] [4F340204]
04 100,0 [C82AC97A] [A85C47EA]
05 88,8 [1FDA8E68] [F729FD8E]
06 100,0 [6E76C1B3] [6CEF095D]
07 80,5 [7E6080EB] [CBE6F0F4]
08 100,0 [2D9899FF] [2EEE2801]
09 94,2 [A1BEAF35] E88C03C
10 85,5 [7DBAAB20] [E08F8E06]

password: asd
Download link:
Links are Interchangeable - Single Extraction - Premium is support resumable

uploaded


Rapidgator.net

Site BBcode/HTML Code:
Dear visitor, you went to the site as unregistered user.
We recommend you Sign up or Login to website under your name.
Information
Would you like to leave your comment? Please Login to your account to leave comments. Don't have an account? You can create a free account now.

Tag Cloud

archive of news

^
 
free html hit counter