» » David Bowie - iSelect (2008) [The Mail On Sunday] ReUpload
uploaded.to



Information of news
15-08-2015, 20:02

David Bowie - iSelect (2008) [The Mail On Sunday] ReUpload

Category: Music

David Bowie - iSelect (2008) [The Mail On Sunday] ReUpload

David Bowie - iSelect (2008)
[Promo - The Mail On Sunday]

EAC: flac (tracks) + cue + log | RAR, 3 %, 383,44 MB
mp3, 320 kbps | RAR, 3 %, 142,69 MB | Scans | RAR, 3 %, 10,61 MB
Label: EMI Records/Upfront | Cat №: UPDB001

"For this CD compilation I've selected 12 of my songs that I don't seem to tire of. Few of them are well known, but many of them are still sung at my concerts. Usually by me. I'll start off with the hit.
David Bowie
"

Track 1

Filename C:\X\01 - Life On Mars .wav

Pre-gap length 0:00:02.00

Peak level 100.0 %
Track quality 100.0 %
Test CRC 06C3E62E
Copy CRC 06C3E62E
Accurately ripped (confidence 8) [A8D85C41]
Copy OK

Track 2

Filename C:\X\02 - Sweet Thing - Candidate - Sweet Thing.wav

Pre-gap length 0:00:00.01

Peak level 98.2 %
Track quality 100.0 %
Test CRC E14E6F5A
Copy CRC E14E6F5A
Accurately ripped (confidence 8) [44F65F90]
Copy OK

Track 3

Filename C:\X\03 - The Bewlay Brothers.wav

Pre-gap length 0:00:01.84

Peak level 100.0 %
Track quality 100.0 %
Test CRC 4BCCFFC7
Copy CRC 4BCCFFC7
Accurately ripped (confidence 9) [37041DBC]
Copy OK

Track 4

Filename C:\X\04 - Lady Grinning Soul.wav

Peak level 100.0 %
Track quality 100.0 %
Test CRC 7F1EEF07
Copy CRC 7F1EEF07
Accurately ripped (confidence 8) [33A28040]
Copy OK

Track 5

Filename C:\X\05 - Win.wav

Peak level 98.1 %
Track quality 100.0 %
Test CRC B54AA08A
Copy CRC B54AA08A
Accurately ripped (confidence 9) [A402CA67]
Copy OK

Track 6

Filename C:\X\06 - Some Are.wav

Pre-gap length 0:00:01.49

Peak level 98.4 %
Track quality 100.0 %
Test CRC DDF6375C
Copy CRC DDF6375C
Accurately ripped (confidence 9) [93BB4305]
Copy OK

Track 7

Filename C:\X\07 - Teenage Wildlife.wav

Peak level 99.4 %
Track quality 100.0 %
Test CRC 2E3C7310
Copy CRC 2E3C7310
Accurately ripped (confidence 9) [D2646343]
Copy OK

Track 8

Filename C:\X\08 - Repetition.wav

Pre-gap length 0:00:01.78

Peak level 98.0 %
Track quality 100.0 %
Test CRC 90D2A7F8
Copy CRC 90D2A7F8
Accurately ripped (confidence 9) [92D1A077]
Copy OK

Track 9

Filename C:\X\09 - Fantastic Voyage.wav

Peak level 98.1 %
Track quality 100.0 %
Test CRC 9E27F333
Copy CRC 9E27F333
Accurately ripped (confidence 9) [48B95E92]
Copy OK

Track 10

Filename C:\X\10 - Loving The Alien.wav

Pre-gap length 0:00:01.22

Peak level 100.0 %
Track quality 100.0 %
Test CRC 3060EEC4
Copy CRC 3060EEC4
Accurately ripped (confidence 9) [D8D89BD5]
Copy OK

Track 11

Filename C:\X\11 - Time Will Crawl (MM Remix).wav

Peak level 100.0 %
Track quality 100.0 %
Test CRC D239E326
Copy CRC D239E326
Accurately ripped (confidence 9) [54C1B263]
Copy OK

Track 12

Filename C:\X\12 - Hang On To Yourself (Santa Monica version).wav

Pre-gap length 0:00:29.93

Peak level 100.0 %
Track quality 100.0 %
Test CRC 4FB4C457
Copy CRC 4FB4C457
Accurately ripped (confidence 9) [FF457D11]
Copy OK

All tracks accurately ripped

No errors occurred

End of status report

Tracklist:
01. Life on Mars? [03:50]
02. Sweet Thing - Candidate - Sweet Thing (Reprise) [08:49]
03. The Bewlay Brothers [05:22]
04. Lady Grinning Soul [03:51]
05. Win [04:45]
06. Some Are [03:14]
07. Teenage Wildlife [06:53]
08. Repetition [03:00]
09. Fantastic Voyage [02:56]
10. Loving the Alien [07:08]
11. Time Will Crawl (MM Remix) [04:55]
12. Intro / Hang On to Yourself (Live) [03:08]
--------------------------
pass: kermith
Download link:



Links are Interchangeable - No Password - Single Extraction

uploaded


Rapidgator.net

Site BBcode/HTML Code:
Dear visitor, you went to the site as unregistered user.
We recommend you Sign up or Login to website under your name.
Information
Would you like to leave your comment? Please Login to your account to leave comments. Don't have an account? You can create a free account now.

Tag Cloud

archive of news

^
 
free html hit counter