» » Hiromi - The Trio Project - Estival Jazz Lugano (2015) [HDTV 720p]
uploaded.to



Information of news
20-08-2015, 06:14

Hiromi - The Trio Project - Estival Jazz Lugano (2015) [HDTV 720p]

Category: Music

Hiromi - The Trio Project - Estival Jazz Lugano (2015) [HDTV 720p]

Hiromi - The Trio Project - Estival Jazz Lugano (2015)
HDTV 720p | TS | Mpeg4 AVC, 1280x720, 10300 kbps, 50 fps Progressive | AC3, 448 kbps, 48 kHz, 5.1 ch;
MP2, 192 kbps, 48 kHz, stereo; MP2, 192 kbps, 48 kHz, stereo | 6.61 GB
Jazz fusion/Post-bop/Classical | Length: 01:20:27 | Uploadable/Nitroflare

Tracklist
Desire
Delusion
Flashback
Beethoven Sonata 8 - Pathetique
I Got Rhythm
Dancando No Paraiso
Joy

Hiromi - The Trio Project - Estival Jazz Lugano (2015) [HDTV 720p]

General
ID : 1 (0x1)
Complete name : C:\Users\ggu\Desktop\ggu\Hiromi. the Trio Project - Estival Jazz Lugano 2011.ts
Format : MPEG-TS
File size : 6.61 GiB
Duration : 1h 20mn
Overall bit rate mode : Variable
Overall bit rate : 11.8 Mbps

Video
ID : 562 (0x232)
Menu ID : 951 (0x3B7)
Format : AVC
Format/Info : Advanced Video Codec
Format profile : [email protected]
Format settings, CABAC : Yes
Format settings, ReFrames : 3 frames
Format settings, GOP : M=2, N=24
Codec ID : 27
Duration : 1h 20mn
Bit rate : 10.3 Mbps
Width : 1 280 pixels
Height : 720 pixels
Display aspect ratio : 16:9
Frame rate : 50.000 fps
Standard : Component
Color space : YUV
Chroma subsampling : 4:2:0
Bit depth : 8 bits
Scan type : Progressive
Bits/(Pixel*Frame) : 0.225
Stream size : 5.81 GiB (88%)
Color primaries : BT.709
Transfer characteristics : BT.709
Matrix coefficients : BT.709
Color range : Limited

Audio #1
ID : 563 (0x233)
Menu ID : 951 (0x3B7)
Format : AC-3
Format/Info : Audio Coding 3
Mode extension : CM (complete main)
Format settings, Endianness : Big
Codec ID : 6
Duration : 1h 20mn
Bit rate mode : Constant
Bit rate : 448 Kbps
Channel(s) : 6 channels
Channel positions : Front: L C R, Side: L R, LFE
Sampling rate : 48.0 KHz
Bit depth : 16 bits
Compression mode : Lossy
Stream size : 258 MiB (4%)
Language : Italian

Audio #2
ID : 564 (0x234)
Menu ID : 951 (0x3B7)
Format : MPEG Audio
Format version : Version 1
Format profile : Layer 2
Codec ID : 3
Duration : 1h 20mn
Bit rate mode : Constant
Bit rate : 192 Kbps
Channel(s) : 2 channels
Sampling rate : 48.0 KHz
Compression mode : Lossy
Stream size : 110 MiB (2%)
Language : Italian

Audio #3
ID : 565 (0x235)
Menu ID : 951 (0x3B7)
Format : MPEG Audio
Format version : Version 1
Format profile : Layer 2
Codec ID : 3
Duration : 1h 20mn
Bit rate mode : Constant
Bit rate : 192 Kbps
Channel(s) : 2 channels
Sampling rate : 48.0 KHz
Compression mode : Lossy
Stream size : 110 MiB (2%)
Language : English

Text #1
ID : 566 (0x236)-100
Menu ID : 951 (0x3B7)
Format : Teletext
Language : Italian

Text #2
ID : 566 (0x236)-777
Menu ID : 951 (0x3B7)
Format : Teletext Subtitle
Language : Italian

Menu
ID : 561 (0x231)
Menu ID : 951 (0x3B7)
Duration : 1h 20mn
List : 562 (0x232) (AVC) / 563 (0x233) (AC-3, Italian) / 564 (0x234) (MPEG Audio, Italian) / 565 (0x235) (MPEG Audio, English) / 566 (0x236) ()
Language : / Italian / Italian / English
Download link:

Buy Premium To Support Me & Get Resumable Support & Max Speed:

nitroflare_com:
http://www.nitroflare.com/view/EE41508651C24EF/nhwwc.Hiromi..The.Trio.Project..Estival.Jazz.Lugano.2015.HDTV.720p.part1.rar
http://www.nitroflare.com/view/960AA48CD542353/nhwwc.Hiromi..The.Trio.Project..Estival.Jazz.Lugano.2015.HDTV.720p.part2.rar
http://www.nitroflare.com/view/CD034045196F3F4/nhwwc.Hiromi..The.Trio.Project..Estival.Jazz.Lugano.2015.HDTV.720p.part3.rar
http://www.nitroflare.com/view/9110259BD9B3F6D/nhwwc.Hiromi..The.Trio.Project..Estival.Jazz.Lugano.2015.HDTV.720p.part4.rar
http://www.nitroflare.com/view/691C906BEFC542D/nhwwc.Hiromi..The.Trio.Project..Estival.Jazz.Lugano.2015.HDTV.720p.part5.rar
http://www.nitroflare.com/view/95B99F72DA4EAAB/nhwwc.Hiromi..The.Trio.Project..Estival.Jazz.Lugano.2015.HDTV.720p.part6.rar
http://www.nitroflare.com/view/A65DF6F874297A7/nhwwc.Hiromi..The.Trio.Project..Estival.Jazz.Lugano.2015.HDTV.720p.part7.rar
http://www.nitroflare.com/view/74B0CA3C523CD95/nhwwc.Hiromi..The.Trio.Project..Estival.Jazz.Lugano.2015.HDTV.720p.part8.rar

uploadable_ch:
http://www.uploadable.ch/file/CjnezWQWtmaY/nhwwc.Hiromi..The.Trio.Project..Estival.Jazz.Lugano.2015.HDTV.720p.part1.rar
http://www.uploadable.ch/file/76uTm3PfRsZG/nhwwc.Hiromi..The.Trio.Project..Estival.Jazz.Lugano.2015.HDTV.720p.part2.rar
http://www.uploadable.ch/file/7uVAXTAM96JJ/nhwwc.Hiromi..The.Trio.Project..Estival.Jazz.Lugano.2015.HDTV.720p.part3.rar
http://www.uploadable.ch/file/KemS24zXgFV8/nhwwc.Hiromi..The.Trio.Project..Estival.Jazz.Lugano.2015.HDTV.720p.part4.rar
http://www.uploadable.ch/file/qCCAPh6NeYhR/nhwwc.Hiromi..The.Trio.Project..Estival.Jazz.Lugano.2015.HDTV.720p.part5.rar
http://www.uploadable.ch/file/ApB8tpGXPg59/nhwwc.Hiromi..The.Trio.Project..Estival.Jazz.Lugano.2015.HDTV.720p.part6.rar
http://www.uploadable.ch/file/PBBYwkQebzq4/nhwwc.Hiromi..The.Trio.Project..Estival.Jazz.Lugano.2015.HDTV.720p.part7.rar
http://www.uploadable.ch/file/YzCR8uK3eK59/nhwwc.Hiromi..The.Trio.Project..Estival.Jazz.Lugano.2015.HDTV.720p.part8.rar


Links are Interchangeable - No Password - Single Extraction

uploaded


Rapidgator.net

Site BBcode/HTML Code:
Dear visitor, you went to the site as unregistered user.
We recommend you Sign up or Login to website under your name.
Information
Would you like to leave your comment? Please Login to your account to leave comments. Don't have an account? You can create a free account now.

Tag Cloud

archive of news

^
 
free html hit counter