» » » Introduction to Bootstrap
uploaded.to



Information of news
21-08-2015, 13:58

Introduction to Bootstrap

Category: Tutorials / Other

Introduction to Bootstrap

Introduction to Bootstrap
English | WMV | 1024 x 768 | VC-1 ~336 kbps | 30 fps
WMA | 112 Kbps | 44.1 KHz | 2 channels | 2h 09min | 500 MB
Genre: Video Tutorial / Programming, Development

Bootstrap is a sleek, intuitive, & powerful front-end framework for faster & easier web development. In this course we'll see how to use Bootstrap's CSS & javascript to turn plain HTML into navigational menus, picture carousels, split buttons, alerts, modal dialogs, & more.
by Scott Allen
Duration: 2h 09m


Contents:
Introduction to Bootstrap 00:19:53
Introduction 01:10
Quick Styles After Dark 03:12
Our First Web Page 02:45
What's Inside? 02:34
Scripts & Styles 02:23
Core Concepts 07:10
Summary 00:39

Layout with Bootstrap 00:24:17
Introduction 00:31
Grid Layouts 01:57
Simple Layout 02:12
Fixed Grids 05:03
Fluid Grids 04:07
Responsive Design 05:29
Responsive Utilities 01:25
Inspiration 03:02
Summary 00:31

Everyday Bootstrap 00:28:52
Introduction 00:19
Typography 06:16
Tables 04:39
Forms 10:13
Buttons 01:45
Images & Icons 04:49
Summary 00:51

Bootstrap Components 00:32:33
Introduction 00:23
Dropdown Menus 06:08
Buttons with Menus 04:23
Tabs & Pills 05:14
The Navbar 10:42
Heros, Badges, Labels, & Media 04:55
Summary 00:48

Bootstrap & javascript 00:23:52
Introduction 00:24
More Buttons 06:15
Modals 05:28
Tooltips & Popovers 02:55
Scrollspy 04:08
Typeahead 01:33
Carousel 02:28
Summary 00:41

General
Complete name : 03. Buttons with Menus.wmv
Format : Windows Media
File size : 14.5 MiB
Duration : 4mn 23s
Overall bit rate mode : Variable
Overall bit rate : 463 Kbps
Maximum Overall bit rate : 5 238 Kbps
Movie name : bootstrap-components
Encoded date : UTC 2013-01-28 04:38:19.957

Video
ID : 2
Format : VC-1
Format profile : [email protected]
Codec ID : WMV3
Codec ID/Info : Windows Media Video 9
Codec ID/Hint : WMV3
Description of the codec : Windows Media Video 9
Duration : 4mn 23s
Bit rate mode : Variable
Bit rate : 336 Kbps
Width : 1 024 pixels
Height : 768 pixels
Display aspect ratio : 4:3
Frame rate : 30.000 fps
Bit depth : 8 bits
Compression mode : Lossy
Bits/(Pixel*Frame) : 0.014
Stream size : 10.5 MiB (73%)
Language : English (US)

Audio
ID : 1
Format : WMA
Format version : Version 2
Codec ID : 161
Codec ID/Info : Windows Media Audio
Description of the codec : Windows Media Audio 9.2 - VBR Quality 90, 44 kHz, stereo 1-pass VBR
Duration : 4mn 23s
Bit rate mode : Variable
Bit rate : 112 Kbps
Channel(s) : 2 channels
Sampling rate : 44.1 KHz
Bit depth : 16 bits
Stream size : 3.50 MiB (24%)
Language : English (US)

Screenshots

Introduction to Bootstrap

Introduction to Bootstrap

Introduction to Bootstrap

Introduction to Bootstrap


Download link:
Links are Interchangeable - Single Extraction - Premium is support resumable

uploaded


Rapidgator.net

Site BBcode/HTML Code:
Dear visitor, you went to the site as unregistered user.
We recommend you Sign up or Login to website under your name.
Information
Would you like to leave your comment? Please Login to your account to leave comments. Don't have an account? You can create a free account now.

Tag Cloud

archive of news

^
 
free html hit counter