» » » Gemini Video Guitar Lesson - Black Metal Atmospheres (2015)
uploaded.to



Information of news
24-08-2015, 12:03

Gemini Video Guitar Lesson - Black Metal Atmospheres (2015)

Category: Tutorials / Other

Gemini Video Guitar Lesson - Black Metal Atmospheres (2015)

Gemini Video Guitar Lesson - Black Metal Atmospheres (2015)
DVDRip | English | MP4 + WAV jam tracks + PDF tabs | 1280 x 720 | AVC ~1989 Kbps | 25 fps
AAC | 128 Kbps | 44.1 KHz | 2 channels | 00:48:28 | 825 MB
Genre: eLearning Video / Guitar lesson (2015)

"The wait is over! Explore the finer aspects of sonic alchemy that is Black Metal. This feature will appease those seeking to explore the atmospheric realms of this very special style. As always, students learn within the context of a real sounding music; the key to continued inspiration & development. The Guitar Pro transcriptions & backing tracks enhance the experience even further, providing superior interactive benefits. Also included, a 7 page PDF study companion, featuring beautiful looking diagrams for all the voicings explored in the tutorial, with notes & detailed insight into each."

Level: Intermediate
Running time: 48mins

Includes:
-Video lessons + performances of each example
-Drum & Bass tracks
-Drum tracks
-Guitar Pro & PDF transcriptions
-7 page PDF study companion

General
Complete name : Lesson.mp4
Format
: MPEG-4
Format profile : Base Media / Version 2
Codec ID
: mp42
File size
: 735 MiB
Duration
: 48mn 28s
Overall bit rate : 2 121 Kbps
Encoded date : UTC 2012-11-04 06:37:28
Tagged date
: UTC 2012-11-04 06:37:28

Video
ID : 2
Format
: AVC
Format/Info
: Advanced Video Codec
Format profile : [email protected]
Format settings, CABAC : Yes
Format settings, ReFrames : 5 frames
Format settings, GOP : M=3, N=24
Codec ID
: avc1
Codec ID/Info : Advanced Video Coding
Duration
: 48mn 28s
Bit rate mode : Variable
Bit rate
: 1 989 Kbps
Width
: 1 280 pixels
Height
: 720 pixels
Display aspect ratio : 16:9
Frame rate mode : Constant
Frame rate
: 25.000 fps
St&ard
: NTSC
Color space
: YUV
Chroma subsampling

: 4:2:0
Bit depth
: 8 bits
Scan type
: Progressive
Bits/(Pixel*Frame)

: 0.086
Stream size
: 690 MiB (94%)
Language
: English
Encoded date : UTC 2012-11-04 06:37:28
Tagged date
: UTC 2012-11-04 06:37:28

Audio
ID : 1
Format
: AAC
Format/Info
: Advanced Audio Codec
Format profile : LC
Codec ID
: 40
Duration
: 48mn 28s
Bit rate mode : Constant
Bit rate
: 128 Kbps
Channel(s)
: 2 channels
Channel positions: Front: L R
Sampling rate : 44.1 KHz
Compression mode : Lossy
Stream size
: 44.4 MiB (6%)
Language
: English
Encoded date : UTC 2012-11-04 06:37:28
Tagged date
: UTC 2012-11-04 06:37:28

Screenshots

Gemini Video Guitar Lesson - Black Metal Atmospheres (2015)

Gemini Video Guitar Lesson - Black Metal Atmospheres (2015)

Gemini Video Guitar Lesson - Black Metal Atmospheres (2015)

Gemini Video Guitar Lesson - Black Metal Atmospheres (2015)


Download link:



Links are Interchangeable - No Password - Single Extraction

uploaded


Rapidgator.net

Site BBcode/HTML Code:
Dear visitor, you went to the site as unregistered user.
We recommend you Sign up or Login to website under your name.
Information
Would you like to leave your comment? Please Login to your account to leave comments. Don't have an account? You can create a free account now.

Tag Cloud

archive of news

^
 
free html hit counter