» » Guitar World DVD's: Mastering Scales 2 - A Deluxe Crash Course in Guitar Theory!
uploaded.to



Information of news
26-08-2015, 09:55

Guitar World DVD's: Mastering Scales 2 - A Deluxe Crash Course in Guitar Theory!

Category: Tutorials

Guitar World DVD's: Mastering Scales 2 - A Deluxe Crash Course in Guitar Theory!

Guitar World DVD's: Mastering Scales 2 - A Deluxe Crash Course in Guitar Theory!
DVD5 in ISO-image | English | VIDEO_TS + PDF booklet | 720 x 480 | MPEG2 ~3752 Kbps | 23.976 fps
AC-3 | 192 Kbps | 48.0 KHz | 2 channels | ~100 minutes | 4.28 GB
Genre: eLearning Video / Guitar lesson

Mastering Scales Part 2 brings over two & a half hours of valuable instruction from Guitar World senior music editor Jimmy Brown. The newest installment of Mastering Scales offers a deluxe crash course in guitar theory, including everything you need to know about major, harmonic & melodic minor, symmetrical scales, the seven modes, power picking, extended patterns with position shifts, & much more! Mastering Scales Part 2 also includes a bonus section featuring a complete Bach two-part invention, arranged for two guitars!
General
Complete name : VTS_03_1.VOB
Format : MPEG-PS
File size : 149 MiB
Duration : 5mn 10s
Overall bit rate mode : Variable
Overall bit rate : 4 024 Kbps

Video
ID : 224 (0xE0)
Format : MPEG Video
Format version : Version 2
Format profile : [email protected]
Format settings, BVOP : Yes
Format settings, Matrix : Custom
Format settings, GOP : M=3, N=15
Duration : 5mn 10s
Bit rate mode : Variable
Bit rate : 3 752 Kbps
Maximum bit rate : 7 500 Kbps
Width : 720 pixels
Height : 480 pixels
Display aspect ratio : 16:9
Frame rate : 23.976 fps
St&ard : NTSC
Color space : YUV
Chroma subsampling : 4:2:0
Bit depth : 8 bits
Scan type : Progressive
Scan order : 2:3 Pulldown
Compression mode : Lossy
Bits/(Pixel*Frame) : 0.453
Stream size : 139 MiB (93%)
Color primaries : SMPTE 170M
Transfer characteristics : SMPTE 170M
Matrix coefficients : SMPTE 170M

Audio
ID : 189 (0xBD)-128 (0x80)
Format : AC-3
Format/Info : Audio Coding 3
Mode extension : CM (complete main)
Muxing mode : DVD-Video
Duration : 5mn 10s
Bit rate mode : Constant
Bit rate : 192 Kbps
Channel(s) : 2 channels
Channel positions : Front: L R
Sampling rate : 48.0 KHz
Bit depth : 16 bits
Compression mode : Lossy
Stream size : 7.10 MiB (5%)

Menu

Screenshots

Guitar World DVD's: Mastering Scales 2 - A Deluxe Crash Course in Guitar Theory!

Guitar World DVD's: Mastering Scales 2 - A Deluxe Crash Course in Guitar Theory!

Guitar World DVD's: Mastering Scales 2 - A Deluxe Crash Course in Guitar Theory!

Guitar World DVD's: Mastering Scales 2 - A Deluxe Crash Course in Guitar Theory!


Download link:
Links are Interchangeable - Single Extraction - Premium is support resumable

uploaded


Rapidgator.net

Site BBcode/HTML Code:
Dear visitor, you went to the site as unregistered user.
We recommend you Sign up or Login to website under your name.
Information
Would you like to leave your comment? Please Login to your account to leave comments. Don't have an account? You can create a free account now.

Tag Cloud

archive of news

^
 
free html hit counter